<?xml version="1.0" standalone="no"?>
<!DOCTYPE svg PUBLIC "-//W3C//DTD SVG 1.1//EN" "http://www.w3.org/Graphics/SVG/1.1/DTD/svg11.dtd" >
<!--
2013-9-30: Created.
-->
<svg>
<metadata>
Created by iconfont
</metadata>
<defs>

<font id="iconfont" horiz-adv-x="1024" >
  <font-face
    font-family="iconfont"
    font-weight="500"
    font-stretch="normal"
    units-per-em="1024"
    ascent="896"
    descent="-128"
  />
    <missing-glyph />
    
    <glyph glyph-name="icon" unicode="&#58936;" d="M896.874159 111.081167c-3.189645 74.080206-40.153512 139.807163-95.823416 182.15055L801.050744 494.261243c0 116.117624-83.069951 213.794248-192.838983 236.871849l0 4.594645c0 52.971445-43.441395 96.305393-96.534614 96.305393l0 0c-53.093219 0-96.532567-43.334971-96.532567-96.305393l0-4.594645c-109.771079-23.077601-192.838983-120.754225-192.838983-236.871849L222.305597 293.231717c-55.67195-42.343387-92.637864-108.070344-95.825462-182.15055l95.825462 0 0-0.645706 578.74617 0 0 0.645706L896.874159 111.081167 896.874159 111.081167 896.874159 111.081167zM491.30926-63.568549l23.961738 0c62.814628 0 115.037013 47.376007 122.627898 108.070344L385.724527 44.501796c7.589862-60.695361 59.816341-108.070344 122.624828-108.070344L491.30926-63.568549 491.30926-63.568549zM491.30926-63.568549"  horiz-adv-x="1024" />

    
    <glyph glyph-name="shalou" unicode="&#59194;" d="M861.175017 3.338502h-31.851739c-5.615347 105.535603-31.777483 185.047547-69.806505 244.703079l-0.509757 1.180065c-39.931577 62.382929-92.751558 103.109244-148.333053 127.916714 55.581496 25.259025 108.401477 65.537798 148.333053 127.846471l0.509757 1.254321c39.315454 62.109988 66.330529 146.029116 70.424635 258.43238h31.227588c21.323466 0 38.091236 15.240508 38.091237 34.384466 0 19.14195-16.76777 34.366403-38.091237 34.366403H162.794879c-21.064574 0-38.061132-15.224453-38.061132-34.358376 0-19.151985 16.996558-34.384465 38.061132-34.384465h31.267727c4.555696-112.405271 31.01887-196.322392 70.390518-258.43238l0.776676-1.262349c39.907494-62.308673 92.466576-102.577411 148.266825-127.838444-55.808277-24.807469-108.359332-65.541812-148.266825-127.916713l-0.776676-1.188093c-37.709922-59.655532-63.948322-139.167475-69.553634-244.695051H162.794879c-21.064574 0-38.061132-15.232481-38.061132-33.898792 0-19.613575 16.996558-34.870139 38.061132-34.870139h698.378131c21.325473 0 38.091236 15.256564 38.091236 34.870139 0.012041 18.650256-16.765763 33.890764-38.089229 33.890764z m-615.81367 54.798799c45.699449 24.498405 139.899999 41.539115 249.569846 42.476344V429.358273l-0.758614 0.280968-0.826849 0.258892h-0.242836c-43.668451 12.509098-79.816994 32.377551-108.39947 58.433321-31.787518 27.958325-54.989456 62.810401-71.211346 101.140461-4.302825 10.787165 1.119858 22.56976 13.010827 26.487257 11.288894 4.413205 24.809476-1.003457 29.096245-11.82474 14.289231-32.63845 33.956992-62.577599 60.915874-86.381612 23.488927-21.124781 53.452159-37.786185 89.526447-48.105739l2.137364-0.467611 1.613559-0.493701 2.165461-0.977367 2.213626 0.977367 2.665183 0.493701 1.085741 0.467611c36.692417 10.327582 66.005409 26.980958 89.759248 48.105739 26.742135 23.81204 46.476125 53.743162 60.699128 86.381612 4.621924 10.813255 17.849497 16.22791 29.706347 11.82474 11.878927-3.919504 17.227354-15.692064 12.866329-26.487257-16.11753-38.330059-39.797113-73.172101-71.167193-101.140461-29.096246-26.047743-64.666797-45.932251-108.634279-58.433321h-0.529826l-0.584012-0.258892-0.967333-0.329134v-328.919229c117.19979-2.606982 214.436802-23.677577 249.732406-52.097492-319.514828-80.601698-533.441874 9.843915-533.441873 9.843915z"  horiz-adv-x="1024" />

    
    <glyph glyph-name="yijian" unicode="&#58903;" d="M919.837738 896h-709.625077C85.910264 896 1.573448 822.205286 1.573448 710.9625080000001L0 191.40995699999996c0-111.242778 85.910264-185.037492 209.897972-185.037492h205.334972l149.792256-134.372465 149.792255 134.372465h205.334973c124.302397 0 206.751076 73.794714 206.751075 185.037492V710.9625080000001C1126.431469 822.205286 1043.98279 896 919.837738 896zM351.193608 444.89244c0-53.0252-41.696374-95.980332-92.833436-95.980332-51.294407 0-92.833436 43.112477-92.833436 95.980332 0 53.0252 41.696374 95.980332 92.833436 95.980332s92.833436-42.955132 92.833436-95.980332z m304.934235 0c0-53.0252-41.696374-95.980332-92.833436-95.980332s-92.833436 43.112477-92.833436 95.980332c0 53.0252 41.696374 95.980332 92.833436 95.980332s92.833436-42.955132 92.833436-95.980332z m303.046097 0c0-53.0252-41.696374-95.980332-92.833436-95.980332-51.294407 0-92.833436 43.112477-92.833436 95.980332 0 53.0252 41.696374 95.980332 92.833436 95.980332 51.451752 0 92.833436-42.955132 92.833436-95.980332z m0 0"  horiz-adv-x="1127" />

    
    <glyph glyph-name="tousu" unicode="&#58904;" d="M963.467169 896H137.577817C61.818487 896 0 834.74478 0 759.407899v-591.711348c0-75.33688 61.818487-136.592101 137.577817-136.592101h0.563266l-0.422449-123.214523c-0.140817-27.459237 29.712302-44.779678 53.510307-31.120469l269.663787 154.334992h502.433624c75.900147 0 137.577817 61.25522 137.577817 136.592101V759.407899c0.140817 75.33688-61.536854 136.592101-137.437 136.592101z m-112.371646-615.368537c-21.685756-12.673494-49.849076-5.491847-62.804203 16.193909-36.893949 62.381753-142.647215 113.075729-235.58617 113.075729-93.361405 0-199.255487-51.116425-236.008619-113.920628-12.81431-21.685756-40.836814-29.149036-62.663387-16.475542-21.967389 12.532677-29.430669 40.55518-16.616358 62.240936 60.551137 103.359383 207.704483 159.263573 315.429181 159.263573 107.161432 0 253.892328-55.48174 314.725098-157.996223 12.673494-21.826573 5.351031-49.708259-16.475542-62.381754z m0 0"  horiz-adv-x="1101" />

    
    <glyph glyph-name="tongxunlu" unicode="&#59074;" d="M711.602525 508.208906l215.391628 0c16.918321 0 29.658484-8.594749 29.658484-26.744107 0-18.154475-14.712073-26.749224-31.629371-26.749224L711.602525 454.715575c-16.925485 0-30.656207 8.594749-30.656207 26.749224C680.946318 499.615181 694.677041 508.208906 711.602525 508.208906zM956.088796 358.900346c0-18.151405-12.748349-26.752294-29.661553-26.752294L757.275751 332.148052c-16.925485 0-30.65723 8.597819-30.65723 26.752294 0 18.149359 13.731746 26.743084 30.65723 26.743084l170.132842 0C944.324868 385.64343 956.088796 377.049704 956.088796 358.900346zM800.847106 81.614042c0-39.784098-32.308847-64.12446-72.02643-64.12446L466.867592 17.489582l-84.297918 0-245.941412 0c-39.711444 0-72.024383 24.337291-72.024383 64.12446l0 17.287735c0 36.45426 26.839275 68.769246 61.099566 81.065294l146.643871 65.364707c0 0 39.749306 12.218276 50.631144 24.411993 7.239891 8.121981 9.473769 34.901905 0.296759 52.481282-9.174963 17.577331-83.47825 114.289999-83.47825 195.409528 0 130.822534 85.99149 236.876965 192.06127 236.876965 106.073874 0 192.058201-106.054431 192.058201-236.876965 0-84.695984-83.380012-177.934528-90.234117-200.878077-6.859221-22.943548-7.41283-40.902572 0.333598-48.523133 12.050454-11.843746 43.062771-23.88806 43.062771-23.88806l162.670893-63.391772c34.262338-12.301164 61.10059-45.601594 61.10059-82.055854L800.847106 81.614042 800.847106 81.614042zM926.918429 216.700693 813.853327 216.700693c-16.921391 0-30.653137 8.594749-30.653137 26.752294 0 18.147312 13.731746 26.743084 30.653137 26.743084l114.049522 0c16.921391 0 29.647227-8.594749 29.647227-26.743084C957.549054 225.298512 943.837774 216.700693 926.918429 216.700693z"  horiz-adv-x="1024" />

    
    <glyph glyph-name="qiye1" unicode="&#59844;" d="M1000.448 47.616h-71.68V604.16c0 25.6-21.504 46.592-47.616 46.592h-190.464v139.264c0 38.4-8.192 69.632-47.616 69.632h-476.16c-39.424 0-71.68-31.232-71.68-69.632v-741.888h-71.168c-13.312 0-24.064-10.24-24.064-23.04v-92.672c0-12.8 10.752-23.04 24.064-23.04h976.384c13.312 0 23.552 10.24 23.552 23.04v92.672c0 12.288-10.752 22.528-23.552 22.528z m-643.072 92.672c0-25.6-21.504-46.592-47.616-46.592h-47.616c-26.112 0-47.616 20.992-47.616 46.592v46.592c0 25.6 21.504 46.592 47.616 46.592h47.616c26.112 0 47.616-20.992 47.616-46.592v-46.592z m0 231.936c0-25.6-21.504-46.592-47.616-46.592h-47.616c-26.112 0-47.616 20.992-47.616 46.592v46.592c0 25.6 21.504 46.592 47.616 46.592h47.616c26.112 0 47.616-20.992 47.616-46.592v-46.592z m0 231.936c0-25.6-21.504-46.592-47.616-46.592h-47.616c-26.112 0-47.616 20.992-47.616 46.592v46.592c0 25.6 21.504 46.592 47.616 46.592h47.616c26.112 0 47.616-20.992 47.616-46.592v-46.592z m214.016-463.872c0-25.6-21.504-46.592-47.616-46.592h-47.616c-26.112 0-47.616 20.992-47.616 46.592v46.592c0 25.6 21.504 46.592 47.616 46.592h47.616c26.112 0 47.616-20.992 47.616-46.592v-46.592z m0 231.936c0-25.6-21.504-46.592-47.616-46.592h-47.616c-26.112 0-47.616 20.992-47.616 46.592v46.592c0 25.6 21.504 46.592 47.616 46.592h47.616c26.112 0 47.616-20.992 47.616-46.592v-46.592z m0 231.936c0-25.6-21.504-46.592-47.616-46.592h-47.616c-26.112 0-47.616 20.992-47.616 46.592v46.592c0 25.6 21.504 46.592 47.616 46.592h47.616c26.112 0 47.616-20.992 47.616-46.592v-46.592z m262.144-394.24c0-12.8-10.752-23.04-24.064-23.04h-47.616c-13.312 0-24.064 10.24-24.064 23.04v46.592c0 12.8 10.752 23.04 24.064 23.04h47.616c13.312 0 24.064-10.24 24.064-23.04v-46.592z m0 185.856c0-12.8-10.752-23.04-24.064-23.04h-47.616c-13.312 0-24.064 10.24-24.064 23.04v46.592c0 12.8 10.752 23.04 24.064 23.04h47.616c13.312 0 24.064-10.24 24.064-23.04v-46.592z"  horiz-adv-x="1024" />

    
    <glyph glyph-name="pivot-table" unicode="&#58885;" d="M867.2 811.2H156.8c-40.0000003125 0-72-31.9999996875-72-72v-710.4c0-40.0000003125 31.9999996875-72 72-72h710.4c40.0000003125 0 72 31.9999996875 72 72V739.2c1.6000003125 40.0000003125-31.9999996875 72-72 72z m-496.00000031250005-436.8V596.8000003125001h505.60000031249996v-222.4000003125H371.1999996875z m222.4000003125-64.00000031249999v-291.1999996875H371.1999996875V310.3999996875h222.4000003125zM307.20000031250004 596.8000003125001v-222.4000003125H148.80000031250006V596.8000003125001h158.4zM148.80000031250006 28.799999999999955V310.3999996875h158.4v-291.1999996875H156.8c-4.8 0-7.999999687500001 4.8-7.999999687500001 9.6z m718.3999996875-9.6H657.6000003125V310.3999996875h217.59999937499998v-281.59999968750003c1.6000003125-4.8-3.1999996875-9.6-7.999999687500001-9.6z"  horiz-adv-x="1024" />

    
    <glyph glyph-name="zhuti" unicode="&#58987;" d="M1004.094293 574.907733L762.737493 816.264533a68.266667 68.266667 0 0 1-96.546133 0l-30.293333-30.293333a68.283733 68.283733 0 0 0-48.264534-20.002133h-151.1936a68.181333 68.181333 0 0 0-48.264533 20.002133l-30.293333 30.293333a68.266667 68.266667 0 0 1-96.546134 0L19.962027 574.907733a68.266667 68.266667 0 0 1 0-96.546133l96.546133-96.546133a67.84 67.84 0 0 1 66.645333-17.271467c10.8032 3.072 21.674667-4.181333 21.674667-15.4112V0c0-37.546667 30.72-68.266667 68.266667-68.266667h477.866666c37.546667 0 68.266667 30.72 68.266667 68.266667V349.1328c0 11.229867 10.871467 18.4832 21.674667 15.4112a67.84 67.84 0 0 1 66.645333 17.271467l96.546133 96.546133a68.266667 68.266667 0 0 1 0 96.546133z"  horiz-adv-x="1024" />

    
    <glyph glyph-name="collapse" unicode="&#58880;" d="M699.01767351 439.03549209L400.13228529 657.91331933C357.02106868 689.48773193 297.44401013 657.66329573 297.44401013 603.1224272300001l0-438.0771127c0-54.64802124 59.7199294-86.54389255 102.90258174-54.93376297l298.67108166 218.7349564C735.73542884 355.77762437 735.73542884 412.10437564 699.01767351 439.03549209z"  horiz-adv-x="1024" />

    
    <glyph glyph-name="jine" unicode="&#58910;" d="M511.406994 830.990381c-246.822478 0-446.912609-200.090131-446.912609-446.912609 0-246.823502 200.090131-446.912609 446.912609-446.912609 246.823502 0 446.912609 200.089108 446.912609 446.912609C958.319603 630.901273 758.230496 830.990381 511.406994 830.990381zM540.767696 161.722544l0-74.975599-66.512856 0 0 69.143777c-45.008077 2.175549-88.672552 16.010649-114.194832 31.28861l20.144806 85.158519c28.224832-16.727986 67.856457-32.021298 111.500467-32.021298 38.97057 0 65.175395 16.72287 65.175395 45.119617 0 27.644617-21.505803 45.124733-71.880097 63.325257-71.874981 26.200732-120.895441 62.579267-120.895441 133.196605 0 64.775282 41.615816 114.999151 113.492844 129.540332L477.597981 680.652374l65.839521 0 0-64.048735c44.332694-1.454118 74.564229-12.379958 98.075713-24.00881l-20.159132-82.265632c-16.787338 8.734942-48.365544 25.484418-96.713692 25.484418-43.656289 0-57.773821-21.106714-57.773821-41.470507 0-23.310915 23.509437-39.320541 81.279165-61.895699 79.923284-30.55797 111.500467-70.591755 111.500467-136.821155C659.6462 230.844831 618.002754 175.537178 540.767696 161.722544z"  horiz-adv-x="1024" />

    
    <glyph glyph-name="yue" unicode="&#58965;" d="M146.976 702.816l517.536 0c38.432 0 69.664 31.232 69.664 69.76l0 53.664c0 38.72-31.2 69.76-69.664 69.76l-517.536 0c-38.432 0-69.696-31.232-69.696-69.76l0-53.696c0-38.72 31.232-69.728 69.696-69.728zM575.776 451.648c23.52 27.488 50.816 51.616 81.152 71.616l0 51.808c0 38.72-31.2 69.76-69.664 69.76l-517.568 0c-38.4 0-69.664-31.232-69.664-69.76l0-53.696c0-38.72 31.2-69.76 69.664-69.76l506.112 0zM77.28 323.904l0-53.696c0-38.72 31.2-69.76 69.664-69.76l336.032 0c0 70.4 18.816 136.352 51.712 193.184l-387.712 0c-38.432 0.032-69.696-31.2-69.696-69.728zM108.32 142.496c-38.432 0-69.664-31.232-69.664-69.76l0-53.696c0-38.72 31.2-69.76 69.664-69.76l467.456 0c-45.952 53.696-77.44 120.064-88.448 193.216l-379.008 0zM869.44 528.896c-181.376 0-328.448-147.072-328.448-328.48 0-181.376 147.072-328.416 328.448-328.416 181.44 0 328.48 147.04 328.48 328.416-0.032 181.408-147.072 328.48-328.48 328.48zM1000.448 146.592c14.272 0 25.824-10.88 25.824-24.32s-11.552-24.32-25.824-24.32l-92.736 0 0-52.8c0-17.952-15.456-32.512-34.496-32.512s-34.496 14.56-34.496 32.512l0 52.8-92.736 0c-14.272 0-25.824 10.88-25.824 24.32s11.552 24.32 25.824 24.32l92.736 0 0 35.136-92.736 0c-14.272 0-25.824 10.88-25.824 24.32s11.552 24.32 25.824 24.32l92.736 0 0 27.328-93.312 89.44c-11.648 11.168-11.488 29.088 0.384 40.032s30.88 10.816 42.528-0.352l84.928-81.376 84.928 81.376c11.648 11.168 30.656 11.296 42.528 0.352 11.84-10.944 12-28.896 0.384-40.032l-93.312-89.44 0-27.328 92.736 0c14.272 0 25.824-10.88 25.824-24.32s-11.552-24.32-25.824-24.32l-92.736 0 0-35.136 92.64 0z"  horiz-adv-x="1198" />

    
    <glyph glyph-name="zhanghuyue" unicode="&#58899;" d="M511.979-121.064c-313.562 0-445.086 112.16-445.086 342.657 0 190.952 149.141 390.228 329.94 453.095h230.295c180.805-62.867 329.94-262.142 329.94-453.095-0.001-230.496-131.525-342.657-445.090-342.657zM635.327 257.694v0.077c20.809 0.109 37.641 17.015 37.641 37.841 0 20.846-16.829 37.733-37.641 37.864v0.090h-76.342c0.149 0.851-0.101 1.609-0.027 2.46l89.472 91.462c14.595 16.442 7.169 30.038-7.582 44.945-14.843 14.983-39.102 18.126-51.095 5.068l-76.934-82.011-83.101 83.103c-10.516 10.506-30.973 7.083-45.694-7.639-14.734-14.742-18.145-35.216-7.639-45.723l84.991-84.97c-1.59-2.033-2.62-4.292-3.236-6.697h-69.073v-0.070c-0.064 0-0.132 0-0.194 0-20.92 0-37.881-16.944-37.881-37.881 0-20.898 16.961-37.878 37.881-37.878 0.063 0 0.13 0.038 0.194 0.038v-0.077h75.712v-37.731h-75.712v-0.11c-0.064 0-0.132 0-0.194 0-20.92 0-37.881-16.944-37.881-37.879 0-20.9 16.961-37.881 37.881-37.881 0.063 0 0.13 0.038 0.194 0.038v-0.038h75.712v-38.139h0.785c-0.593-2.958-0.933-6.048-0.933-9.21 0-26.154 21.196-47.35 47.348-47.35 26.156 0 47.35 21.197 47.35 47.35 0 3.16-0.344 6.252-0.935 9.21h0.443v38.139l76.492 0.038c20.809 0.131 37.641 17.017 37.641 37.844 0 20.843-16.832 37.731-37.641 37.86v0.131h-76.492v37.73h76.492zM691.905 825.93l-7.96-9.95c-0.177-0.185-0.298-0.406-0.474-0.591l-67.324-84.156h-227.277l-67.197 84.011c-0.499 0.482-0.823 1.071-1.285 1.59l-7.278 9.1 1.284 2.571c-0.619 2.332-1.442 4.606-1.442 7.121 0 12.059 7.584 22.249 18.2 26.393l0.898 1.796c0 0 93.101 18.625 170.457 18.939 80.958 0.332 170.459-18.939 170.459-18.939l0.918-1.813c10.55-4.181 18.069-14.354 18.069-26.374 0-2.48-0.815-4.683-1.405-6.954l1.356-2.74z"  horiz-adv-x="1024" />

    
    <glyph glyph-name="zhifu" unicode="&#59297;" d="M925.789 719.039l-827.578 0c-20.039 0-36.211-17.842-36.211-39.903l0-87.715 900 0 0 87.715c0 22.06-16.172 39.903-36.211 39.903zM444.94 335.836l68.818 0 0 72.685-68.818 0 0-72.685zM175.555 170.074l339.434 0 0 72.685-339.434 0 0-72.685zM400.203 408.521l-224.648 0 0-72.685 224.737 0-0.088 72.685zM962 527.086l0-439.893c0-21.094-16.172-38.232-36.211-38.232l-827.578 0c-20.039 0-36.211 17.138-36.211 38.232l0 439.893 900 0z"  horiz-adv-x="1024" />

    
    <glyph glyph-name="fapiao" unicode="&#58909;" d="M953.35868061 267.16406279c-3.8671875 3.8671875-11.71874971 3.8671875-15.58593722 3.8671875-35.03906279 0-62.34374971 7.734375-81.79687528 27.30468692-19.45312471 19.45312471-31.17187529 50.625-31.1718753 85.66406279 0 35.03906279 11.71874971 62.34374971 31.1718753 81.79687529 23.32031221 27.30468779 63.16406279 31.17187529 86.48437499 31.17187442 3.8671875 0 11.71874971 3.8671875 15.58593723 3.8671875 3.8671875 3.8671875 3.8671875 7.734375 3.8671875 15.58593808V648.84374971c0 66.21093721-19.45312471 85.66406279-85.66406193 85.66406279H154.72586783c-62.34374971 0-85.66406279-19.45312471-85.66406193-85.66406279v-132.42187442c0-3.8671875 3.8671875-11.71874971 7.85156221-15.58593808 3.8671875-3.8671875 7.734375-3.8671875 15.5859372-3.8671875 38.90625029 0 66.21093721-7.734375 85.6640628-23.32031221 19.45312471-19.45312471 27.30468779-46.7578125 27.30468778-89.6484375 0-74.06250029-42.5390625-112.96874971-116.48437556-112.96874971-11.71874971 0-19.45312471-7.734375-19.45312472-19.45312558v-132.42187442c0-66.21093721 19.45312471-85.66406279 85.66406279-85.66406279h720.3515625c66.21093721 0 85.66406279 19.45312471 85.66406193 85.66406279V251.57812471c0 3.8671875-3.8671875 11.6015625-7.85156222 15.58593808z m-289.80468721 96.6796875c16.40625029 0 27.7734375-11.48437529 27.77343749-27.7734375 0-16.40625029-11.48437529-27.7734375-27.77343749-27.7734375H543.3196184v-151.40625029c0-16.40625029-11.48437529-27.7734375-27.7734375-27.7734375-16.40625029 0-27.7734375 11.48437529-27.77343751 27.7734375V308.29687529H367.5383684c-16.40625029 0-27.7734375 11.48437529-27.77343751 27.7734375 0 16.40625029 11.48437529 27.7734375 27.77343751 27.7734375h120.23437499v69.02343721H367.5383684c-17.2265625 0-27.7734375 16.40625029-27.77343751 31.75781221 0 16.40625029 11.48437529 27.7734375 27.77343751 27.7734375H448.7493059l-98.78906251 98.7890625c-11.13281279 11.13281279-11.13281279 27.89062471 0 39.0234375 5.39062471 5.39062471 12.3046875 8.32031279 19.57031194 8.3203128s14.17968721-2.92968721 19.57031278-8.3203128l126.5625-126.5625 126.5625 126.5625c5.39062471 5.39062471 12.3046875 8.32031279 19.57031279 8.3203128 7.26562529 0 14.17968721-2.92968721 19.57031191-8.3203128 11.01562471-11.01562471 11.01562471-31.87500029 0-42.890625l-98.78906248-98.7890625h81.2109375c16.40625029 0 27.7734375-11.48437529 27.77343748-27.7734375 0-16.40625029-11.48437529-27.7734375-27.77343748-27.7734375H543.3196184v-69.02343721h120.234375z"  horiz-adv-x="1024" />

    
    <glyph glyph-name="yanjing" unicode="&#59056;" d="M957.025121 383.823991c0.107447 18.962887-7.498788 32.92897-7.93267 33.471322-60.314691 115.142413-172.684968 189.040471-177.357384 192.029548-80.529081 52.978609-168.012551 79.930447-259.626086 80.093153l0 0.597611c-91.830475-0.162706-179.206498-27.060309-259.842003-80.148411-4.564969-2.988054-117.151164-76.887135-177.248913-191.975313-0.434905-0.597611-8.150634-14.508435-8.042163-33.471322l-0.10847 0c-0.216941-19.126616 7.607258-33.200146 8.042163-33.744545 60.20622-115.14139 172.684968-189.039447 177.248913-192.028525 80.637552-53.061496 168.012551-79.903841 259.733533-80.120782l0-0.543376c91.831498 0.10847 179.313945 27.060309 259.951497 80.120782 4.672416 2.989077 117.042693 76.888158 177.357384 191.975313 0.433882 0.597611 8.150634 14.616906 7.93267 33.744545L957.025121 383.823991zM512.000512 217.060897c-92.15691 0-166.926824 74.714655-166.926824 166.9258 0 92.210122 74.768891 166.924777 166.926824 166.924777 92.263333 0 166.924777-74.714655 166.924777-166.924777C678.925289 291.775552 604.263845 217.060897 512.000512 217.060897z"  horiz-adv-x="1024" />

    
    <glyph glyph-name="shuru" unicode="&#58964;" d="M861.428838 639.35273c2.413056-5.362074 4.346163-11.614515 5.808538-18.76439 1.49207-7.146803 2.232934-14.593331 2.232934-22.336717 0-7.743386-1.487974-15.481549-4.468941-23.224934-2.988134-7.745434-7.754957-15.191962-14.291046-22.336717-7.149158-7.150899-13.550182-13.402214-19.212288-18.762342-5.659136-5.361152-10.572186-10.126643-14.743347-14.296576-4.7616-4.764467-9.231667-8.935526-13.401805-12.506829L636.272845 674.195354c7.146086 6.552269 15.635763 14.44393 25.460941 23.679283 9.82825 9.232282 18.021171 16.525414 24.572621 21.888512 8.340275 6.551245 16.979354 11.167334 25.914266 13.850419 8.932762 2.677965 17.72032 3.870106 26.355302 3.571302 8.63703-0.299827 16.974234-1.639322 25.019802-4.020531 8.040448-2.382234 15.036006-5.061222 20.990874-8.042189 12.514509-6.557389 26.36247-18.01943 41.552077-34.397389C841.324134 674.347827 853.092659 657.219686 861.428838 639.35273L861.428838 639.35273zM165.404774 203.348582c3.572531 3.57335 11.91383 12.06272 25.015706 25.46391 13.105971 13.403238 29.487821 29.929677 49.141146 49.587405l65.228186 65.217331 72.373248 72.370278 192.09984 192.094003 167.07799-167.967539L544.243098 248.022016l-71.47776-72.370278c-23.826637-23.22903-45.270835-44.52608-64.331776-63.882957-19.059814-19.358925-34.848051-35.289702-47.355392-47.798682-12.510413-12.507853-19.956326-19.65568-22.337638-21.443379-5.952819-5.360128-12.808192-11.017933-20.547789-16.972595-7.742669-5.960806-15.783117-10.72425-24.12544-14.296576-8.336179-4.170957-20.549837-9.231258-36.634829-15.18889-16.080896-5.955686-32.907776-11.762893-50.480742-17.421824-17.56887-5.662003-34.247373-10.574848-50.036634-14.745805-15.784141-4.163789-27.545498-6.849024-35.290112-8.037069-16.086016-1.787699-26.804531 0.595558-32.166912 7.146803-5.360333 6.549197-6.849229 17.568154-4.467917 33.057894 1.192243 8.33792 4.023808 20.396544 8.490701 36.184064 4.467917 15.785472 9.231667 32.162509 14.29207 49.140224 5.065523 16.972595 9.977651 32.60969 14.745395 46.904218 4.764672 14.293504 8.633958 24.123392 11.614003 29.48352 3.574579 8.336896 7.596339 15.932928 12.062208 22.782874C150.663475 187.416781 157.068595 195.008614 165.404774 203.348582L165.404774 203.348582zM165.404774 203.348582M463.329075 34.839757l79.902003 0 0-79.548723-79.902003 0 0 79.548723ZM625.668915 34.839757l79.902003 0 0-79.548723-79.902003 0 0 79.548723ZM788.655514 34.839757l79.902003 0 0-79.548723-79.902003 0 0 79.548723Z"  horiz-adv-x="1024" />

    
    <glyph glyph-name="jiahao" unicode="&#59025;" d="M456.640352 811.579095c-15.349256-15.349256-22.921555-35.507944-22.716898-55.564305h-0.613971v-294.194065H141.366643c-20.670331 0.61397-41.545318-6.856001-57.303887-22.614569-30.391526-30.391526-30.391526-79.611472 0-110.002998 15.656241-15.656241 36.326571-23.126212 56.792245-22.61457v-1.432597h291.226542v-293.477766h0.61397c-0.102328-20.056361 7.367643-40.215049 22.716898-55.564305 30.391526-30.391526 79.611472-30.391526 110.002998 0 15.349256 15.349256 22.921555 35.507944 22.716898 55.564305h0.613971V306.895573h293.887079c20.670331-0.61397 41.545318 6.856001 57.303887 22.61457 30.391526 30.391526 30.391526 79.611472 0 110.002998-15.656241 15.656241-36.326571 23.126212-56.792245 22.61457v1.432597H589.974218V756.01479h-0.511642c0.102328 20.056361-7.367643 40.215049-22.716898 55.564305-30.391526 30.391526-79.7138 30.391526-110.105326 0z"  horiz-adv-x="1024" />

    
    <glyph glyph-name="gengxin" unicode="&#58921;" d="M603.226 586.024l-35.133-78.902c0 0-31.31-77.516 70.542-61.301l286.505 67.674c0 0 65.115 17.669 36.27 74.364l-155.928 277.367c0 0-48.308 46.052-80.876-8.679l-34.616-79.29c-0.051 0-527.988 213.577-653.501-344.24 0-0.001 139.859 320.267 566.737 153.008zM426.099 161.367l33.083 79.685c0 0 29.372 78.309-72.022 59.519l-284.695-74.829c0 0-64.651-19.236-34.479-75.208l163.04-273.554c0 0 49.298-44.673 80.529 10.901l32.619 79.944c0 0.122 533.19-200.308 644.616 360.541-0.001 0.001-131.749-323.615-562.693-166.999z"  horiz-adv-x="1024" />

    
    <glyph glyph-name="gongzuoliangfenpei" unicode="&#58924;" d="M573.371733 825.821867v-510.225067H55.022933C71.68 66.7648 281.941333-128 538.965333-128 806.843733-128 1024 85.8112 1024 349.525333 1024 602.453333 826.1632 809.301333 573.371733 825.821867zM463.4624 896C205.824 896 0 693.316267 0 439.9104h463.394133V896z"  horiz-adv-x="1024" />

    
    <glyph glyph-name="quanxian" unicode="&#58884;" d="M618.616683 463.853211c42.636556 18.066337 88.163726 27.460833 134.41355 27.460833h13.730416c21.679605 54.921665 27.460833 120.683133 16.621031 183.553987C757.366154 820.121383 620.06199 917.679605 476.253945 891.664079 332.4459 866.371207 210.317459 754.359915 236.332985 609.106563c5.058574-31.0741 20.956951-80.214538 38.300635-115.624559L13.033056 115.534227c-9.394495-13.730416-15.175723-39.023289-12.28511-55.644319l11.562456-64.316161c-10.839802 62.1482 2.890614-22.402258 11.562456-22.402258l85.995766-1.445307c16.62103 2.890614 37.577982 17.343684 46.249823 31.0741L260.18055 164.674665l0.722654 0.722653 90.331687-7.226535 120.683133 189.335216h1.445307c10.839802 14.45307 22.402258 28.90614 36.132675 41.913902 31.0741 32.519407 67.929428 57.089626 109.120677 74.43331z m-549.216655-388.064926l-13.007763-5.058574 1.445307 13.730416L308.598335 447.954834l15.175723-13.730416-254.37403-358.436133z m380.838391 669.177135c39.745942 57.089626 117.792519 71.542696 174.159492 31.0741 56.366972-40.468596 70.097389-118.515173 31.0741-176.327452-39.745942-57.089626-80.214538-16.62103-136.58151 23.124912-56.366972 41.191249-107.675371 65.038814-68.652082 122.12844zM749.416965 421.216655c-151.757234 0-274.608327-122.851094-274.608327-274.608328s122.851094-274.608327 274.608327-274.608327 274.608327 122.851094 274.608328 274.608327-122.851094 274.608327-274.608328 274.608328z m158.983769-387.342273c0-41.191249-78.769231-50.585745-152.479887-50.585744s-153.202541 9.394495-153.202541 50.585744v11.562456c0 30.351447 54.199012 60.702893 100.448836 77.323924 3.613267 1.445307 19.511644 10.117149 10.117149 33.242061-23.124912 23.124912-40.468596 61.425547-40.468596 99.003528 0 57.089626 37.577982 87.441073 82.382498 87.441073 44.081863 0 82.382498-29.628793 82.382499-87.441073 0-36.855328-17.343684-75.155963-40.468596-98.280875-8.671842-26.738179 5.058574-33.242061 7.226535-33.24206 48.417784-15.898377 103.33945-46.249824 103.339449-77.323924l0.722654-12.28511z"  horiz-adv-x="1024" />

    
    <glyph glyph-name="daochu1" unicode="&#58883;" d="M289.43 567.891a4.931 4.931 0 0 1-1.238-5.418 4.928 4.928 0 0 1 4.593-3.134h137.403l-0.296-224.814a14.742 14.742 0 0 1 4.329-10.479 14.76 14.76 0 0 1 10.477-4.345h134.578c3.788 0 7.582 1.45 10.476 4.345a14.763 14.763 0 0 1 4.325 10.479l-0.274 224.814h137.408a4.937 4.937 0 0 1 4.594 3.134 4.93 4.93 0 0 1-1.24 5.418L522.068 764.943a14.778 14.778 0 0 1-10.067 3.95 14.77 14.77 0 0 1-10.068-3.95L289.43 567.891zM945.113 270.283l-133.22 102.925c-7.548 5.888-21.555 10.706-31.127 10.706h-77.131L832.028 255.98H704.013l-65.146-92.595H382.35l-62.363 92.61H191.962L319.54 383.915h-78.572c-9.572 0-23.58-4.818-31.127-10.706L76.619 270.283c-7.547-5.889-11.289-18.151-8.315-27.25l53.147-162.623c2.973-9.099 13.239-16.544 22.811-16.544h734.235c9.572 0 19.801 7.456 22.733 16.569l52.279 162.572c2.929 9.114-0.848 21.387-8.396 27.276z"  horiz-adv-x="1024" />

    
    <glyph glyph-name="peizhiguanli" unicode="&#59024;" d="M349.07022222 427.69066667c69.74577778 3.64088889 129.36533333-50.74488889 133.00622223-121.51466667 3.75466667-70.76977778-49.83466667-131.072-119.58044445-134.71288889C292.75022222 167.82222221999996 233.24444445 222.20799999999997 229.48977778 292.97777778c-3.75466667 70.76977778 49.83466667 131.072 119.58044444 134.71288889z m325.06311111-187.61955556c19.34222222 1.024 34.01955555 22.64177778 32.99555556 42.32533334l-3.75466667 71.1111111c-1.024 19.56977778-17.74933333 39.59466667-37.20533333 38.57066667l-61.44-3.18577777c-6.48533333 12.40177778-15.92888889 38.22933333-27.42044444 56.43377777l41.30133333 43.80444445c12.97066667 14.67733333 11.94666667 37.09155555-2.50311111 50.28977778l-51.88266667 47.67288888c-14.44977778 13.19822222-35.95377778 12.06044445-48.92444445-2.61688888l-39.936-46.19377778c-19.11466667 9.67111111-45.39733333 16.61155555-58.25422222 21.84533333l-3.29955555 62.35022222c-1.024 19.68355555-22.41422222 34.47466667-41.75644445 33.45066667l-70.08711111-3.64088889c-19.34222222-1.024-39.02577778-17.97688889-38.00177777-37.66044445l3.29955555-62.35022222c-12.17422222-6.48533333-37.66044445-16.15644445-55.63733333-27.76177778l-43.23555556 41.984c-14.44977778 13.19822222-36.63644445 12.17422222-49.60711111-2.38933333l-46.87644445-52.56533333c-12.97066667-14.56355555-11.83288889-36.40888889 2.6168889-49.60711111l45.62488888-40.50488889c-9.55733333-19.34222222-16.384-46.08-21.504-59.05066667l-61.44-3.18577777c-19.34222222-1.024-34.01955555-22.64177778-32.99555555-42.32533334l3.75466667-71.11111111c1.024-19.56977778 17.74933333-39.59466667 37.20533333-38.57066667l61.44 3.18577778c6.48533333-12.40177778 15.92888889-38.22933333 27.42044444-56.43377778l-41.30133333-43.80444444c-12.97066667-14.67733333-11.94666667-37.09155555 2.50311111-50.28977778l51.88266667-47.67288889c14.44977778-13.19822222 35.95377778-12.06044445 48.92444444 2.61688889l39.82222222 46.19377778c19.00088889-9.67111111 45.39733333-16.61155555 58.25422222-21.84533334l3.29955556-62.35022222c1.024-19.68355555 22.41422222-34.47466667 41.75644444-33.45066666l70.08711112 3.64088888c19.34222222 1.024 39.02577778 17.97688889 38.00177778 37.66044445l-3.29955556 62.35022222c12.17422222 6.48533333 37.66044445 16.15644445 55.63733333 27.76177778l43.23555556-41.984c14.44977778-13.19822222 36.63644445-12.17422222 49.60711111 2.38933333l46.87644444 52.56533334c12.97066667 14.56355555 11.83288889 36.40888889-2.61688888 49.60711111l-45.6248889 40.50488889c9.55733333 19.34222222 16.384 46.08 21.504 59.05066666l61.55377778 3.18577778zM773.34755555 771.98222222c38.34311111-3.98222222 68.03911111-39.936 63.94311112-78.50666667-4.096-38.57066667-39.70844445-67.584-78.96177778-63.488-38.34311111 3.98222222-68.03911111 39.936-63.94311111 78.50666667 4.20977778 38.57066667 39.82222222 67.584 78.96177777 63.488z m184.32-28.89955555l-31.1751111 69.97333333c-2.048 4.32355555-7.50933333 6.59911111-11.03644445 4.43733333l-49.72088889-13.65333333c-8.98844445 8.30577778-19.68355555 15.24622222-30.37866666 22.18666667l-2.16177778 49.72088888c0.34133333 3.29955555-4.89244445 7.96444445-8.98844445 8.30577778l-76.11733333 7.96444445c-5.68888889 0.56888889-10.01244445-2.27555555-10.46755556-6.25777778l-12.40177778-48.128c-11.94666667-4.55111111-23.89333333-8.98844445-34.36088888-15.36L645.00622222 845.93777778c-5.46133333 3.072-9.67111111 1.024-11.49155555-0.45511111L589.36888889 784.27022222c-2.84444445-3.86844445-3.18577778-7.05422222 0.45511111-11.60533333l36.29511111-35.95377778c-2.27555555-5.57511111-2.84444445-11.264-3.64088889-18.54577778-0.79644445-7.28177778 0.22755555-13.19822222-0.34133333-18.88711111l-42.89422222-25.94133333c-4.43733333-3.64088889-6.71288889-9.216-5.23377778-11.03644444l31.17511111-69.97333334c2.84444445-4.43733333 6.71288889-6.48533333 12.51555555-5.46133333l47.33155556 13.99466667c10.58133333-8.53333333 19.56977778-16.83911111 30.37866667-22.18666667l2.73066667-52.224c-0.34133333-3.29955555 4.89244445-7.96444445 8.192-8.30577778l76.11733333-7.96444445c4.096-0.45511111 10.12622222 3.072 9.10222222 8.87466667l12.40177778 48.128c11.94666667 4.55111111 23.89333333 8.98844445 34.36088889 15.36l45.85244444-23.77955555c5.46133333-3.072 9.67111111-1.024 11.49155556 0.45511111l45.056 62.00888889c2.84444445 3.86844445 3.18577778 7.05422222-0.45511112 11.60533333l-36.2951111 35.95377778c2.27555555 5.57511111 2.84444445 11.264 3.64088888 18.54577777 0.79644445 7.28177778-0.22755555 13.19822222 0.34133334 18.88711112l46.87644444 25.6c3.41333333 1.25155555 3.98222222 7.05422222 2.84444444 11.264z m-93.75288888-648.76088889c30.26488889-3.18577778 53.93066667-31.28888889 50.63111111-62.00888889-3.18577778-30.72-32.19911111-53.248-62.464-50.06222222-30.26488889 3.18577778-53.93066667 31.28888889-50.63111111 62.00888888 3.18577778 30.72 32.19911111 53.248 62.464 50.06222223z m154.85155555-31.06133333c2.73066667 1.024 3.29955555 6.37155555 2.27555556 9.216l-25.71377778 59.392c-1.024 2.84444445-6.144 4.66488889-8.87466667 3.64088888l-42.43911111-11.71911111c-7.168 7.50933333-17.29422222 12.62933333-25.94133333 18.88711111l-2.27555556 41.984c0.45511111 3.98222222-4.55111111 7.168-7.168 7.50933334l-64.39822222 6.82666666c-5.23377778 0.56888889-8.30577778-3.18577778-8.64711111-5.80266666l-10.92266667-40.61866667c-11.03644445-4.20977778-20.70755555-7.28177778-29.24088888-13.08444445l-39.02577778 20.25244445c-3.75466667 1.70666667-7.85066667 0.79644445-9.32977778-0.34133333l-37.43288889-52.67911112c-2.95822222-2.38933333-3.18577778-5.00622222-1.024-9.32977777l31.28888889-31.63022223c-1.82044445-5.23377778-2.27555555-9.216-2.95822222-15.8151111-0.68266667-6.71288889 0.22755555-10.80888889-0.34133334-16.15644445L699.73333333 12.060444449999977c-2.95822222-2.38933333-4.77866667-7.62311111-3.64088888-9.10222223l27.0791111-58.14044444c3.64088889-3.072 6.144-4.66488889 11.60533334-3.86844445l39.82222222 11.94666667c9.78488889-7.73688889 16.95288889-15.24622222 25.94133334-18.88711111l1.93422222-44.71466667c-0.45511111-3.98222222 4.55111111-7.168 7.168-7.50933333l64.39822222-6.82666667c3.98222222-0.45511111 8.192 1.82044445 7.39555556 7.28177778l10.92266666 40.61866667c11.03644445 4.20977778 20.70755555 7.28177778 29.24088889 13.08444444l39.02577778-20.25244444c3.75466667-1.70666667 7.85066667-0.79644445 9.32977777 0.34133333l37.4328889 52.67911111c1.59288889 2.50311111 2.048 6.48533333-0.34133334 9.44355556l-31.28888889 31.63022222c1.82044445 5.23377778 2.27555555 9.216 2.95822223 15.81511111 0.68266667 6.71288889-0.22755555 10.80888889 0.34133333 16.15644445l39.70844444 21.504z"  horiz-adv-x="1024" />

    
    <glyph glyph-name="bangong" unicode="&#58927;" d="M482.684421 159.701731H225.661784a21.134487 21.134487 0 0 1-21.816245-21.134487v-162.258323a21.134487 21.134487 0 0 1 21.816245-21.134487h257.022637a21.134487 21.134487 0 0 1 21.816245 21.134487v162.258323a21.134487 21.134487 0 0 1-21.816245 21.134487zM482.684421 418.76964H225.661784a21.134487 21.134487 0 0 1-21.134487-21.134487v-162.258322a21.134487 21.134487 0 0 1 21.816245-21.134487h256.340879a21.134487 21.134487 0 0 1 21.816245 21.134487V397.635153A21.134487 21.134487 0 0 1 482.684421 418.76964zM1066.268975 587.163782h-287.701731l-43.63249 26.588548v27.952064h126.806924a40.223702 40.223702 0 0 1 39.541944 40.90546V855.094541a40.223702 40.223702 0 0 1-39.541944 40.905459H545.406125a40.223702 40.223702 0 0 1-39.541944-40.905459v-172.484687a40.223702 40.223702 0 0 1 39.541944-40.90546h128.17044v-28.633821l-43.63249-26.588549H293.83755v4.090546l-5.454061 18.407457a90.673768 90.673768 0 0 0 0 48.404793l9.544607 26.588549a126.806924 126.806924 0 0 1 6.135819 49.086551v25.906791A28.633822 28.633822 0 0 1 272.703063 782.828229H204.527297a28.633822 28.633822 0 0 1-27.270306-25.225033v-25.906791a126.806924 126.806924 0 0 1 6.135819-49.086551l9.544607-26.588549a90.673768 90.673768 0 0 0 0-48.404794l-5.454061-18.407456v-4.090546H24.543276a25.225033 25.225033 0 0 1-24.543276-23.861518v-68.175766a25.225033 25.225033 0 0 1 24.543276-25.225033h24.543275a25.225033 25.225033 0 0 0 24.543276-25.225034v-545.406125a25.225033 25.225033 0 0 1 24.543276-25.225033h24.543275a25.225033 25.225033 0 0 1 24.543276 25.225033v545.406125a25.225033 25.225033 0 0 0 24.543275 25.225034h746.524634a25.225033 25.225033 0 0 0 24.543276-25.225034v-545.406125a25.225033 25.225033 0 0 1 24.543276-25.225033h24.543275a25.225033 25.225033 0 0 1 24.543276 25.225033v545.406125a25.225033 25.225033 0 0 0 24.543275 25.225034h24.543276a25.225033 25.225033 0 0 1 25.225033 27.270306v68.175766a25.225033 25.225033 0 0 1-24.543275 23.861518zM899.920107 397.635153a21.134487 21.134487 0 0 1-21.816245 21.134487H621.762983a21.134487 21.134487 0 0 1-21.816245-21.134487v-421.326232a21.134487 21.134487 0 0 1 21.816245-21.134487h256.340879a21.134487 21.134487 0 0 1 21.816245 21.134487z"  horiz-adv-x="1092" />

    
    <glyph glyph-name="yuancailiaofei" unicode="&#58962;" d="M336.780342 696.746698h-5.117589A112.586943 112.586943 0 0 1 296.479334 703.783382 101.07237 101.07237 0 0 1 193.487868 630.21805C185.171787 593.755233 118.643139 271.347168 86.018513 106.944642a277.629167 277.629167 0 0 0 179.115592 72.285936c9.595478 62.690457 48.617089 351.834198 71.646237 517.51612zM937.457273 106.944642C903.55325 271.347168 838.303999 593.755233 833.18641 630.21805A101.07237 101.07237 0 0 1 727.636151 703.783382a112.586943 112.586943 0 0 1-35.18342-5.757287h-5.117588c23.029148-165.681922 63.969854-454.825663 71.006538-518.155819a277.629167 277.629167 0 0 0 179.115592-72.925634zM508.85925 355.147677a300.658315 300.658315 0 0 0 185.512577-60.131663c-24.308545 177.836195-63.969854 481.053304-70.36684 511.758833A109.388451 109.388451 0 0 1 508.85925 895.692945a109.388451 109.388451 0 0 1-115.145738-86.359303C385.397431 767.753236 347.015519 469.014017 321.427577 293.096918a300.658315 300.658315 0 0 0 187.431673 62.050759zM957.927626 3.313479c-5.757287 72.285935-86.359303 131.138201-182.953783 131.138201H769.216556c-5.757287-102.351767-57.572869-161.204033-144.57187-168.880415A191.909563 191.909563 0 0 1 796.083895-127.824723c94.035686 0 165.042224 58.852266 161.843731 131.138202zM257.457723 134.45168h-8.316081c-95.315083 0-177.836195-57.572869-182.953783-131.138201S133.356205-127.824723 228.671288-127.824723a191.909563 191.909563 0 0 1 173.358305 94.035686C313.751194-28.03175 263.215009 32.739611 257.457723 134.45168zM719.959769 157.480827c0 88.918097-94.675384 162.48343-211.100519 162.48343s-211.740217-71.646237-211.740218-160.564334c0-88.918097 94.675384-160.564334 211.740218-160.564334s211.100519 69.727141 211.100519 158.645238z"  horiz-adv-x="1024" />

    
    <glyph glyph-name="pinggu" unicode="&#59166;" d="M956.8 624c-44.8 44.8-108.8 32-153.6-12.8L473.6 278.4c-3.2-3.2-6.4-9.6-6.4-16l-28.8-134.4c-3.2-9.6 0-16 6.4-25.6 6.4-6.4 28.8 0 28.8 0l137.6 32c6.4 0 9.6 3.2 16 6.4l329.6 329.6c44.8 44.8 44.8 102.4 0 147.2v6.4zM300.8 524.64l-83.2-80c-12.8-12.8-28.8-12.8-41.6 0s-12.8 28.8 0 41.6l102.4 102.4c12.8 12.8 28.8 12.8 41.6 0l76.8-76.8 185.6 185.6c12.8 9.6 28.8 9.6 38.4-3.2 9.6-9.6 12.8-28.8 3.2-38.4L419.2 447.84c-6.4-6.4-12.8-9.6-22.4-9.6-6.4 0-16 3.2-22.4 9.6l-73.6 76.8z m329.6-438.4l-201.6-41.6h-6.4c-12.8 0-22.4 6.4-32 16-6.4 9.6-9.6 22.4-6.4 32l41.6 201.6c0 6.4 6.4 16 9.6 19.2L838.4 719.84l9.6 9.6v12.8c0 67.2-54.4 118.4-118.4 118.4h-576c-67.2 0-118.4-54.4-118.4-118.4v-716.8c0-67.2 54.4-118.4 118.4-118.4h572.8c67.2 0 118.4 54.4 118.4 118.4V287.84l-192-192c-3.2-6.4-12.8-9.6-22.4-9.6z"  horiz-adv-x="1024" />

    
    <glyph glyph-name="icon-test" unicode="&#58889;" d="M184.68408889 384h18.6413511v-37.28270222c0-198.84107852 161.5583763-360.39945482 360.39945482-360.39945481 198.84107852 0 360.39945482 161.5583763 360.39945481 360.39945481 0 198.84107852-161.5583763 360.39945482-360.39945481 360.39945481-62.13783703 0-118.06189037-12.42756741-167.77216-43.49648592v12.42756741l-74.56540445 55.92405333c68.35162075 43.49648592 149.13080889 68.35162075 242.33756445 68.35162074 248.55134815 0 447.39242667-198.84107852 447.39242666-447.39242667s-198.84107852-447.39242667-447.39242666-447.39242666-447.39242667 198.84107852-447.39242667 447.39242666c0 24.85513482 0 49.71026963 6.21378371 74.56540444l62.13783704-43.49648592z m0 0M557.5111111 632.55134815c-49.71026963 0-99.42053925-12.42756741-136.70324148-31.06891852l211.26864593-142.91702518c55.92405333-37.28270222 74.56540445-118.06189037 31.06891852-173.9859437-24.85513482-37.28270222-62.13783703-55.92405333-105.63432297-55.92405334-24.85513482 0-49.71026963 6.2137837-68.35162074 24.85513481L277.89084444 390.2137837c0-12.42756741-6.2137837-24.85513482-6.2137837-43.49648592 0-155.34459259 130.48945778-285.83405037 285.83405036-285.83405037s285.83405037 130.48945778 285.83405037 285.83405037C843.34516147 508.27567408 712.85570369 632.55134815 557.5111111 632.55134815zM557.5111111 352.93108148m-80.77918815 0a80.77918815 80.77918815 0 1 1 161.5583763 0 80.77918815 80.77918815 0 1 1-161.5583763 0ZM445.66300444 352.93108148c0 55.92405333 37.28270222 99.42053925 86.99297185 111.84810667L364.88381629 576.62729482l-12.4275674 80.77918815L184.68408889 769.25458963c-12.42756741 6.2137837-24.85513482 6.2137837-31.06891853 0-12.42756741-6.2137837-18.64135111-18.64135111-12.42756741-31.06891852l18.64135112-86.99297186c0-18.64135111-6.2137837-31.06891852-24.85513482-37.28270222l-93.20675556-18.64135111c-12.42756741 0-18.64135111-12.42756741-24.8551348-24.85513481 0-12.42756741 0-24.85513482 12.4275674-31.06891852l167.77216-111.84810667L277.89084444 446.13783703l173.9859437-118.06189036c-6.2137837 12.42756741-6.2137837 18.64135111-6.2137837 24.85513481z"  horiz-adv-x="1024" />

    
    <glyph glyph-name="weibiaoti9" unicode="&#58888;" d="M704 832h-128c-25.6 0-42.667-17.067-42.667-42.667v-810.667c0-25.6 17.067-42.667 42.667-42.667h128c25.6 0 42.667 17.067 42.667 42.667v810.667c0 25.6-17.067 42.667-42.667 42.667zM682.667 320h-85.333c-12.8 0-21.333 8.533-21.333 21.333 0 12.8 8.533 21.333 21.333 21.333h85.333c12.8 0 21.333-8.533 21.333-21.333s-8.533-21.333-21.333-21.333zM682.667 448h-85.333c-12.8 0-21.333 8.533-21.333 21.333 0 12.8 8.533 21.333 21.333 21.333h85.333c12.8 0 21.333-8.533 21.333-21.333s-8.533-21.333-21.333-21.333zM682.667 576h-85.333c-12.8 0-21.333 8.533-21.333 21.333s8.533 21.333 21.333 21.333h85.333c12.8 0 21.333-8.533 21.333-21.333s-8.533-21.333-21.333-21.333zM682.667 704h-85.333c-12.8 0-21.333 8.533-21.333 21.333 0 12.8 8.533 21.333 21.333 21.333h85.333c12.8 0 21.333-8.533 21.333-21.333 0-12.8-8.533-21.333-21.333-21.333zM503.467 785.067l-123.733 42.667c-21.333 8.533-46.933 0-55.467-21.333l-298.667-763.733c-8.533-21.333 4.267-46.933 25.6-55.467l123.733-46.933c21.333-8.533 46.933 4.267 55.467 25.6l298.667 763.733c8.533 21.333 0 46.933-25.6 55.467zM324.267 320c-4.267-12.8-17.067-17.067-29.867-12.8l-81.067 29.867c-12.8 4.267-17.067 17.067-12.8 29.867s17.067 17.067 29.867 12.8l81.067-29.867c12.8-4.267 17.067-17.067 12.8-29.867zM371.2 439.467c-4.267-8.533-17.067-12.8-29.867-8.533l-81.067 29.867c-12.8 4.267-17.067 17.067-12.8 29.867 4.267 12.8 17.067 17.067 29.867 12.8l81.067-34.133c12.8-4.267 17.067-17.067 12.8-29.867zM418.133 563.2c-4.267-12.8-17.067-17.067-29.867-12.8l-81.067 29.867c-12.8 4.267-17.067 17.067-12.8 29.867 4.267 8.533 17.067 12.8 29.867 8.533l81.067-29.867c12.8-4.267 17.067-17.067 12.8-25.6zM465.067 682.667c-4.267-12.8-17.067-17.067-29.867-12.8l-81.067 29.867c-12.8 4.267-17.067 17.067-12.8 29.867 4.267 12.8 17.067 17.067 29.867 12.8l81.067-29.867c12.8-4.267 17.067-17.067 12.8-29.867zM960 832h-128c-25.6 0-42.667-17.067-42.667-42.667v-810.667c0-25.6 17.067-42.667 42.667-42.667h128c25.6 0 42.667 17.067 42.667 42.667v810.667c0 25.6-17.067 42.667-42.667 42.667zM938.667 320h-85.333c-12.8 0-21.333 8.533-21.333 21.333 0 12.8 8.533 21.333 21.333 21.333h85.333c12.8 0 21.333-8.533 21.333-21.333s-8.533-21.333-21.333-21.333zM938.667 448h-85.333c-12.8 0-21.333 8.533-21.333 21.333 0 12.8 8.533 21.333 21.333 21.333h85.333c12.8 0 21.333-8.533 21.333-21.333s-8.533-21.333-21.333-21.333zM938.667 576h-85.333c-12.8 0-21.333 8.533-21.333 21.333s8.533 21.333 21.333 21.333h85.333c12.8 0 21.333-8.533 21.333-21.333s-8.533-21.333-21.333-21.333zM938.667 704h-85.333c-12.8 0-21.333 8.533-21.333 21.333 0 12.8 8.533 21.333 21.333 21.333h85.333c12.8 0 21.333-8.533 21.333-21.333 0-12.8-8.533-21.333-21.333-21.333z"  horiz-adv-x="1024" />

    
    <glyph glyph-name="qiye" unicode="&#58943;" d="M1025.025023 101.146853v90.021978s-60.355644 10.22977-60.355644 15.344656-5.114885 10.22977-5.114885 15.344655c5.114885 15.344655 39.896104 39.896104 39.896103 39.896104l-70.585414 90.021978s-45.010989-34.781219-55.240759-39.896104c-5.114885 0-10.22977 5.114885-15.344656 5.114885s-20.45954 60.355644-20.45954 60.355644h-90.021978s-10.22977-55.240759-25.574426-60.355644c-5.114885 0-10.22977-5.114885-15.344655-5.114885-10.22977 5.114885-55.240759 39.896104-55.240759 39.896104l-70.585415-90.021978s34.781219-34.781219 34.781219-45.010989c0-5.114885-5.114885-5.114885-5.114885-10.22977-15.344655-5.114885-55.240759-15.344655-55.24076-15.344656v-90.021978s50.125874-10.22977 60.355645-20.45954c0-5.114885 5.114885-10.22977 5.114885-15.344656-10.22977-15.344655-39.896104-34.781219-39.896104-34.781218l70.585415-90.021978s55.240759 34.781219 65.470529 39.896103c5.114885 0 10.22977-5.114885 15.344655-5.114885 10.22977-5.114885 15.344655-55.240759 15.344656-55.240759h90.021978s5.114885 50.125874 10.22977 55.240759 15.344655 5.114885 20.45954 5.114885c10.22977-5.114885 45.010989-39.896104 45.010989-39.896103l90.021978 90.021978s-34.781219 25.574426-45.010989 34.781218c5.114885 5.114885 5.114885 10.22977 5.114886 15.344656 6.137862 10.22977 61.378621 20.45954 61.378621 20.45954z m-231.192807-65.470529c-65.470529 0-115.596404 50.125874-115.596404 115.596403s50.125874 115.596404 115.596404 115.596404 115.596404-50.125874 115.596403-115.596404-55.240759-115.596404-115.596403-115.596403zM502.283764 172.755245c0 145.262737 120.711289 265.974026 265.974026 265.974026 15.344655 0 34.781219 0 50.125874-5.114885v231.192807c0 25.574426-20.45954 39.896104-39.896104 39.896104h-165.722277v125.826174c0 34.781219-5.114885 65.470529-39.896104 65.470529h-421.466534c-34.781219 0-65.470529-29.666334-65.470529-65.470529V158.433566h-65.47053c-10.22977 0-20.45954-10.22977-20.45954-20.45954v-84.907093c0-10.22977 10.22977-20.45954 20.45954-20.45954h521.718282c-24.551449 38.873127-39.896104 84.907093-39.896104 140.147852z m150.377623 340.651348c0 10.22977 10.22977 20.45954 20.45954 20.459541h39.896104c10.22977 0 20.45954-10.22977 20.45954-20.459541v-39.896103c0-10.22977-10.22977-20.45954-20.45954-20.459541h-39.896104c-10.22977 0-20.45954 10.22977-20.45954 20.459541v39.896103z m-276.203797 191.296704c0 25.574426 20.45954 39.896104 39.896104 39.896104h39.896104c25.574426 0 39.896104-20.45954 39.896104-39.896104v-39.896104c0-25.574426-20.45954-39.896104-39.896104-39.896104h-39.896104c-25.574426 0-39.896104 20.45954-39.896104 39.896104v39.896104z m0-210.733267c0 25.574426 20.45954 39.896104 39.896104 39.896104h39.896104c25.574426 0 39.896104-20.45954 39.896104-39.896104v-39.896104c0-25.574426-20.45954-39.896104-39.896104-39.896104h-39.896104c-25.574426 0-39.896104 20.45954-39.896104 39.896104v39.896104z m-59.332667-251.652348c0-25.574426-20.45954-39.896104-39.896104-39.896104h-39.896104c-25.574426 0-39.896104 20.45954-39.896104 39.896104v39.896104c0 25.574426 20.45954 39.896104 39.896104 39.896104h39.896104c25.574426 0 39.896104-20.45954 39.896104-39.896104v-39.896104z m0 205.618382c0-25.574426-20.45954-39.896104-39.896104-39.896104h-39.896104c-25.574426 0-39.896104 20.45954-39.896104 39.896104v39.896104c0 25.574426 20.45954 39.896104 39.896104 39.896104h39.896104c25.574426 0 39.896104-20.45954 39.896104-39.896104v-39.896104z m0 210.733267c0-25.574426-20.45954-39.896104-39.896104-39.896104h-39.896104c-25.574426 0-39.896104 20.45954-39.896104 39.896104v39.896104c0 25.574426 20.45954 39.896104 39.896104 39.896103h39.896104c25.574426 0 39.896104-20.45954 39.896104-39.896103v-39.896104z m145.262737-461.362638h-39.896104c-25.574426 0-39.896104 20.45954-39.896103 39.896104v39.896104c0 25.574426 20.45954 39.896104 39.896103 39.896104h39.896104c25.574426 0 39.896104-20.45954 39.896104-39.896104v-39.896104c0-19.436563-15.344655-39.896104-39.896104-39.896104z"  horiz-adv-x="1026" />

    
    <glyph glyph-name="huiyianpai" unicode="&#58898;" d="M867.328 115.71199999999999v6.144c-26.112 147.456-147.968 254.464-289.792 254.464h-19.968c37.376 9.728 72.192 29.184 100.352 57.344l2.048 2.048c76.288 76.8 83.456 199.168 16.384 284.672-40.448 50.688-98.304 81.408-160.256 84.48v0.512H495.104c-65.024-3.072-124.416-35.328-163.328-89.088-60.928-81.92-54.272-199.68 13.824-273.408l2.56-4.096c29.184-30.72 65.024-51.712 103.936-61.44h-17.408c-144.896 0-267.776-109.568-291.84-261.12-6.144-37.888 4.096-76.288 27.648-105.472 23.552-29.184 58.368-46.08 94.72-46.08h478.72c36.864 0 71.68 17.408 95.232 47.104 24.576 28.672 34.304 67.072 28.16 103.936z m-362.496 330.752c-39.424 0-77.824 16.896-104.96 46.592-45.056 47.104-49.152 120.32-10.24 174.08 27.648 37.888 69.632 59.392 116.224 59.904 44.544 0 86.016-20.992 113.152-56.832 41.984-53.248 37.376-132.096-10.752-179.2l-2.048-2.048c-28.16-27.136-64-42.496-101.376-42.496z m-70.144-147.968h141.824c107.008 0 198.656-80.384 217.088-191.488l1.024-3.584c2.56-15.872-1.536-32.256-11.264-44.032-8.704-11.776-23.04-18.432-38.912-18.432h-477.696c-15.872 0-28.672 6.144-38.4 19.456-9.216 10.752-13.824 26.112-11.776 42.496 16.384 113.152 108.544 195.584 218.112 195.584zM259.072 419.328c-55.296 2.56-98.816 50.688-98.816 109.056 0 48.128 30.72 91.136 74.752 104.96 8.192 2.56 14.848 8.192 18.944 15.872 4.096 7.68 5.12 16.896 2.56 25.088-4.608 16.384-23.04 27.648-38.912 22.528-70.656-21.504-120.32-90.624-120.32-168.448 0-51.2 20.992-99.84 58.368-133.12l2.048-2.048-2.56-1.024c-84.48-43.52-136.704-132.096-136.704-231.424 0-18.432 14.336-33.28 31.232-33.28 17.408 0 31.232 14.848 31.232 33.28 0 103.936 77.312 188.416 176.128 192 5.632 0 11.264 2.048 15.36 5.12 9.728 6.144 15.36 15.872 15.872 26.624 0.512 8.704-2.56 17.408-8.192 23.552-5.12 6.656-12.8 10.752-20.992 11.264zM868.864 391.68l-2.56 1.024 2.048 2.048c36.864 33.28 58.368 81.92 58.368 133.12 0 77.312-49.664 146.432-120.32 168.448-15.872 5.12-34.304-6.144-38.912-22.528-2.56-8.704-1.536-17.408 2.56-25.088 4.096-7.68 10.752-13.312 18.944-15.872 44.032-13.312 74.752-56.32 74.752-104.96 0-58.368-43.52-105.984-98.816-109.056-8.192-0.512-15.872-4.096-21.504-10.752s-8.704-14.848-8.192-24.064c0.512-10.752 6.144-20.48 15.36-26.112 5.632-4.096 10.752-5.632 16.384-6.144 98.816-3.584 176.128-88.064 176.128-192 0-18.432 14.336-33.28 31.232-33.28 17.408 0 31.232 14.848 31.232 33.28 0 99.84-52.224 188.416-136.704 231.936zM505.344 586.752m-162.304 0a162.304 162.304 0 1 1 324.608 0 162.304 162.304 0 1 1-324.608 0ZM512 307.712h135.68l119.296-72.704 59.904-126.976-37.376-89.6-573.44 6.656-30.72 58.88 59.392 152.064 109.568 71.68z"  horiz-adv-x="1024" />

    
    <glyph glyph-name="youjian" unicode="&#59328;" d="M512 301.14955061a41.42522469 41.42522469 0 0 0-22.24534565 6.46233506L14.8973037 609.8088997899999v-557.50067389A82.85044939 82.85044939 0 0 1 97.83060354-30.252246910000054h828.33879292A82.85044939 82.85044939 0 0 1 1009.1026963 52.308225900000025V609.39464755l-474.85735065-301.78276188A41.54950036 41.54950036 0 0 0 512 301.14955061M926.16939646 798.2522469099999H97.83060354A82.85044939 82.85044939 0 0 1 14.8973037 715.65034889v-6.33805939l497.1026963-317.64862293 497.1026963 315.90876349v8.07791883A82.85044939 82.85044939 0 0 1 926.16939646 798.2522469099999"  horiz-adv-x="1024" />

    
    <glyph glyph-name="luntan" unicode="&#59079;" d="M227.555556 611.441778A56.888889 56.888889 0 0 0 284.444444 668.444444h796.444445c31.402667 0 56.888889-25.941333 56.888889-57.002666v-568.661334A56.888889 56.888889 0 0 0 1081.002667-14.222222H625.777778l-227.555556-113.777778v113.777778H284.387556C252.984889-14.222222 227.555556 11.719111 227.555556 42.780444V611.441778z m170.666666-256.170667v-56.32c0-16.554667 12.856889-28.728889 28.728889-28.728889h56.32c16.554667 0 28.728889 12.856889 28.728889 28.728889v56.32A28.273778 28.273778 0 0 1 483.271111 384h-56.32A28.273778 28.273778 0 0 1 398.222222 355.271111z m227.555556 0v-56.32c0-16.554667 12.856889-28.728889 28.728889-28.728889h56.32c16.554667 0 28.728889 12.856889 28.728889 28.728889v56.32A28.273778 28.273778 0 0 1 710.826667 384h-56.32a28.273778 28.273778 0 0 1-28.728889-28.728889z m227.555555 0v-56.32c0-16.554667 12.856889-28.728889 28.728889-28.728889h56.32c16.554667 0 28.728889 12.856889 28.728889 28.728889v56.32A28.273778 28.273778 0 0 1 938.382222 384h-56.32a28.273778 28.273778 0 0 1-28.728889-28.728889zM910.222222 725.333333H227.555556a56.888889 56.888889 0 0 1-56.888889-57.002666V156.444444H56.832C25.429333 156.444444 0 182.385778 0 213.447111V838.997333A56.888889 56.888889 0 0 0 56.888889 896h796.444444c31.402667 0 56.888889-25.941333 56.888889-57.002667V725.333333z"  horiz-adv-x="1137" />

    
    <glyph glyph-name="kehu" unicode="&#59009;" d="M643.3 776.4c16.1-3.5 29.4-12.1 39.9-25.7 10.5-13.7 16.5-30.6 17.9-51 0-6.3 0.4-16.1 1-29.4 0.7-13.3 1.1-27.3 1.1-42s-0.5-28-1.6-39.9c-1.1-11.9-3-19.3-5.8-22.1-4.2-4.9-8.2-7.2-12.1-6.8-3.9 0.4-5.8-1.6-5.8-5.8 0-2.1-0.5-9.5-1.6-22.1-1-12.6-4-30.1-8.9-52.5-2.8-11.9-6.8-22.6-12.1-32-5.3-9.5-10.7-18-16.3-25.7-7-8.4-14-16.1-21-23.1-0.7-9.1-1.1-17.9-1.1-26.3v-22.1c0-7.7 0.4-13.7 1.1-17.9 0.7-8.4 2.8-14.4 6.3-17.9 3.5-3.5 10.5-6.7 21-9.5 3.5-1.4 9.8-3.5 18.9-6.3 9.1-2.8 20-6.5 32.6-11 12.6-4.5 25.7-9.3 39.4-14.2 13.7-4.9 26.8-9.6 39.4-14.2 12.6-4.6 23.8-8.8 33.6-12.6 9.8-3.9 17.2-6.8 22.1-8.9 14-7 23.3-14.4 27.8-22.1 4.6-7.7 8.6-17.5 12.1-29.4 1.4-6.3 3.3-17.9 5.8-34.7 2.4-16.8 5.1-34.3 7.9-52.5 2.8-18.2 5.1-35.4 6.8-51.5 1.8-16.1 3-26.3 3.7-30.5 0.7-9.1-0.9-16.8-4.7-23.1-3.9-6.3-12.8-11.2-26.8-14.7-11.9-2.8-29.2-5.8-52-8.9-22.8-3.2-49.2-6.1-79.3-8.9-30.1-2.8-63.2-5.1-99.3-6.8-36.1-1.8-74.1-2.6-114-2.6s-78.1 0.7-114.5 2.1c-36.4 1.4-69.9 3.3-100.3 5.8-30.5 2.5-57.4 5.3-80.9 8.4-23.5 3.2-41.9 6.5-55.2 10-2.8 0.7-6.3 2.1-10.5 4.2s-8.2 4.7-12.1 7.9-6.8 7-8.9 11.6c-2.1 4.6-2.8 9.6-2.1 15.2 0.7 4.9 2.6 15.9 5.8 33.1 3.2 17.2 6.8 35.5 11 55.2 4.2 19.6 8.1 38 11.6 55.2 3.5 17.2 6 27.8 7.4 32 2.8 8.4 6.8 17.2 12.1 26.3 5.3 9.1 14.2 18.6 26.8 28.4 6.3 4.9 17.9 10.2 34.7 15.8 16.8 5.6 34.3 10.9 52.5 15.8 18.2 4.9 35.4 9.1 51.5 12.6s26.6 6 31.5 7.4c10.5 2.1 19.8 4.7 27.8 7.9 8.1 3.2 12.1 7.5 12.1 13.1v60.9c-7.7 6.3-15.1 13.3-22.1 21-6.3 6.3-12.6 13.8-18.9 22.6-6.3 8.8-11.9 18-16.8 27.8-9.8 18.9-16.1 36.2-18.9 52-2.8 15.8-4.6 25-5.3 27.8-0.7 2.8-3.3 5.1-7.9 6.8-4.5 1.8-7.9 5.4-10 11-5.6 11.9-8.2 24.5-7.9 37.8 0.4 13.3 1.2 32.2 2.6 56.7 2.1 24.5 6.1 48 12.1 70.4 6 22.4 19.1 43.1 39.4 62 10.5 9.1 24.5 16.6 42 22.6s35.4 10.3 53.6 13.1c18.2 2.8 35.5 4.2 52 4.2s28.9-1.1 37.3-3.2c9.1-2.8 16.5-5.8 22.1-8.9 5.6-3.2 10-6.1 13.1-8.9 3.2-2.8 5.8-5.4 7.9-7.9 2.1-2.5 4.2-4.4 6.3-5.8 3.5-2.8 8.1-3.7 13.7-2.6 5.5 1 15.4 0.1 29.4-2.7z m-96.7-575.7L575 91.4l46.2 124-44.1 31.5-30.5-46.2zM470.9 249l-42-33.6 47.3-124 25.2 110.3-30.5 47.3zM845 659.8c9.8-1.4 17.7-6.3 23.6-14.7 6-8.4 9.3-18.6 10-30.5 0-3.5 0.3-9.3 1-17.3 0.7-8.1 1.1-16.3 1.1-24.7s-0.4-16.3-1.1-23.6c-0.7-7.4-1.7-11.7-3.2-13.1-2.8-2.8-5.4-4-7.9-3.7-2.4 0.4-3.7-0.9-3.7-3.7 0-1.4-0.2-5.8-0.5-13.1-0.3-7.4-2.3-18-5.8-32-1.4-7-3.5-13.3-6.3-18.9-2.8-5.6-6-10.5-9.5-14.7-3.5-4.9-7.7-9.5-12.6-13.7-0.7-5.6-1.1-10.9-1.1-15.8v-24.2c0.7-4.9 2.1-8.4 4.2-10.5 2.1-2.1 6.3-3.9 12.6-5.3 2.8-0.7 9.5-2.8 20-6.3s21.9-7.5 34.1-12.1c12.3-4.6 23.6-8.8 34.1-12.6 10.5-3.9 17.9-6.8 22.1-8.9 8.4-4.2 14.2-8.6 17.3-13.1 3.2-4.6 5.4-10.7 6.8-18.4 0.7-3.5 1.7-10.2 3.2-20 1.4-9.8 2.8-20.3 4.2-31.5 1.4-11.2 2.8-21.4 4.2-30.5 1.4-9.1 2.1-15.1 2.1-17.9 0.7-5.6-0.2-10.3-2.6-14.2-2.4-3.8-7.9-6.5-16.3-7.9-7-1.4-16.1-3.2-27.3-5.3-11.2-2.1-25.9-3.9-44.1-5.3-1.4 8.4-3.5 16.5-6.3 24.2-2.1 7-4.5 14.4-7.4 22.1-2.8 7.7-6.3 14.4-10.5 20-7.7 10.5-15.8 18.9-24.2 25.2-8.4 6.3-16.8 11.6-25.2 15.8-8.4 4.2-16.8 7.5-25.2 10-8.4 2.4-16.8 5.1-25.2 7.9-35.7 12.6-64.4 21.4-86.2 26.3-21.7 4.9-34 9.1-36.8 12.6-1.4 2.1-2.3 4.6-2.6 7.4-0.4 2.8-0.5 6-0.5 9.5s0.3 7.4 1 11.6c9.8 2.8 17.2 4.6 22.1 5.3 4.9 0.7 8.8 1.4 11.6 2.1 5.6 1.4 10.9 3 15.8 4.7 4.9 1.8 7.4 4.4 7.4 7.9v36.8l-2.1 1.1-4.2 2.1c-1.4 0.7-2.8 2.5-4.2 5.3 4.2 9.1 8.4 20 12.6 32.6 3.5 11.2 7.2 24.9 11 41 3.9 16.1 7.2 35.4 10 57.8 2.1 17.5 3.5 33.3 4.2 47.3 0.7 14 1.1 26.3 1.1 36.8v32.6c8.4 1.4 17.3 2.1 26.8 2.1s17-0.7 22.6-2.1c11.9-3.5 19.1-7 21.5-10.5 2.5-3.5 5.1-6.3 7.9-8.4 2.8-1.4 5.8-1.9 8.9-1.6 3.3-0.1 9.1-0.6 17.5-2z m-53.6-336.2l7.4-28.4 18.9-6.3 14.7 37.8-22.1 18.9-18.9-22z m-54.6 18.9l-17.9-17.9 1.1-4.2 32.6-9.5 4.2 11.6-20 20zM270.3 682.9c-11.2 1.4-22.4 1.8-33.6 1.1-9.8-0.7-20.5-2.4-32-5.3-11.6-2.8-22.2-7.7-32-14.7-8.4-5.6-15.1-12.3-20-20-4.9-7.7-8.6-15.6-11-23.6-2.4-8.1-4-15.6-4.7-22.6-0.7-7-1.1-12.6-1.1-16.8-0.7-9.1-1.4-17.3-2.1-24.7-0.7-7.4-0.4-13.8 1-19.4 1.4-5.6 2.5-9.5 3.2-11.6 0.7-2.1 2.1-3.9 4.2-5.3s3.9-2.3 5.3-2.6c1.4-0.4 2.8-5.1 4.2-14.2 0.7-9.1 3-18 6.8-26.8 3.9-8.8 7.9-15.9 12.1-21.5 2.1-3.5 4.7-6.8 7.9-10s6.1-6.5 8.9-10c2.8-3.5 6.3-7 10.5-10.5V394c-0.7-4.2-2.3-7.7-4.7-10.5-2.4-2.8-7.2-4.9-14.2-6.3-3.5-0.7-9.3-2.1-17.3-4.2-8.1-2.1-16.8-4.4-26.3-6.8-9.5-2.4-18.9-5.1-28.4-7.9-9.5-2.8-17-5.3-22.6-7.4-20.3-9.8-32.6-26.6-36.8-50.4-2.8-11.2-6-25.2-9.5-42s-6-28.7-7.4-35.7c-1.4-7-1.2-14.4 0.5-22.1 1.8-7.7 7.5-12.6 17.3-14.7 4.9-1.4 11-2.4 18.4-3.2 7.4-0.7 14.5-1.8 21.5-3.2 7.7-1.4 15.8-2.5 24.2-3.2 1.4 8.4 3.5 16.8 6.3 25.2 2.1 7.7 5.1 15.4 8.9 23.1 3.9 7.7 8.6 15.1 14.2 22.1 5.6 6.3 12.4 12.4 20.5 18.4 8.1 6 15.9 11.7 23.6 17.3 8.4 6.3 17.5 12.3 27.3 17.9L203 326.7l23.1 17.9 24.2-27.3 12.6 3.2c1.4 0 3.5 0.7 6.3 2.1 1.4 0.7 2.8 1.1 4.2 1.1l20 23.1 17.9-14.7c3.5 0.7 6.7 1.4 9.5 2.1 2.8 0.7 6 1.4 9.5 2.1l10.5 2.1c7.7 1.4 14.2 2.8 19.4 4.2 5.3 1.4 8.2 4.9 8.9 10.5 0 2.8 0.2 5.1 0.5 6.8 0.3 1.7 0.5 3.3 0.5 4.7v3.2c-6.3 2.1-12.3 4.2-17.9 6.3l-14.7 4.2c-4.9 1.4-8.8 2.8-11.6 4.2-5.6 2.1-8.8 5.1-9.5 8.9-0.7 3.9-1.1 8.9-1.1 15.2v10.5c0 3.5 0.4 7 1.1 10.5 0 3.5 0.4 7.7 1.1 12.6-5.6 8.4-11.2 17.5-16.8 27.3-4.9 8.4-9.6 18-14.2 28.9-4.6 10.9-8.2 22.2-11 34.1-3.5 16.1-6 33.3-7.4 51.5-1.4 18.2-1.7 34.7-1.1 49.4 0.1 17.6 1.2 34.7 3.3 51.5z"  horiz-adv-x="1024" />

    
    <glyph glyph-name="hetongguanli" unicode="&#59129;" d="M828.6 825H217.9c-28.1 0-51-22.8-51-50.9v-780.5c0-28.2 22.9-50.9 51-50.9h610.7c28.1 0 51 22.8 51 50.9V774.1c0 28.2-22.9 50.9-51 50.9zM354 706.3h338.6c10.4 0 17.4-6.8 17.4-17s-6.9-17-17.4-17H354c-10.4 0-17.4 6.8-17.4 17 0 8.5 8.7 17 17.4 17z m0-84.9h338.6c10.4 0 17.4-6.8 17.4-17s-6.9-17-17.4-17H354c-10.4 0-17.4 6.8-17.4 17 0 8.6 8.7 17 17.4 17z m344-445.6c-27.3-4.7-48.1-28.5-46.5-56.9 3.2-49-54.5-75.9-91.4-42.7-20.8 19-52.9 19-73.8 0-35.3-33.2-94.6-4.7-91.4 42.7 1.6 28.5-17.6 52.2-46.5 56.9-48.1 7.9-62.5 69.6-22.4 96.4 24.1 15.8 30.5 45.9 16 71.2-24.1 42.7 16 91.7 62.5 77.5 27.3-7.9 56.1 4.7 65.7 31.6 17.6 44.3 83.4 44.3 101 0 9.6-25.3 38.5-39.5 65.7-31.6 46.5 14.2 86.6-36.4 62.5-77.5-14.4-23.7-6.4-55.3 16-71.2 46.7-26.8 32.3-88.5-17.4-96.4zM523.3 350c-46.7 0-84.8-38.1-84.8-84.8s38.1-84.8 84.8-84.8c46.7 0 84.8 38.1 84.8 84.8S570 350 523.3 350z"  horiz-adv-x="1024" />

    
    <glyph glyph-name="liucheng" unicode="&#58944;" d="M708.928 606.336c81.408-55.104 133.888-141.76 141.76-252.032 26.24 0 55.168-7.872 81.408-18.368-7.872 141.76-81.408 270.4-196.928 341.312-7.872-15.744-7.872-44.608-26.24-70.912z m-55.168-593.344c-44.608-18.432-89.216-34.176-141.76-34.176-52.48 0-99.776 7.872-141.76 34.176-18.432-26.24-34.176-44.672-55.168-63.04 63.04-34.112 126.08-55.168 196.928-55.168 70.912 0 141.76 18.432 196.928 55.168-15.744 20.992-34.112 36.736-55.168 63.04zM170.688 356.928a334.72 334.72 0 0 0 141.76 252.032c-7.872 26.24-18.368 55.168-26.24 81.408-115.52-73.536-189.056-207.36-196.928-351.808 26.24 10.496 52.48 18.368 81.408 18.368z m10.496-47.296A181.504 181.504 0 0 1 0 128.51199999999994a181.504 181.504 0 0 1 181.12-181.184 181.504 181.504 0 0 1 181.248 181.12c-2.624 99.84-84.032 181.184-181.184 181.184zM512 895.232a181.504 181.504 0 0 1-181.12-181.248A181.504 181.504 0 0 1 512 532.864a181.504 181.504 0 0 1 181.12 181.12A181.504 181.504 0 0 1 512 895.168z m330.88-585.6a181.504 181.504 0 0 1-181.248-181.12 181.504 181.504 0 0 1 181.184-181.184A181.504 181.504 0 0 1 1024 128.44799999999998a181.504 181.504 0 0 1-181.12 181.184zM181.12 309.63199999999995A181.504 181.504 0 0 1 0 128.51199999999994a181.504 181.504 0 0 1 181.12-181.184 181.504 181.504 0 0 1 181.248 181.12c-2.624 99.84-84.032 181.184-181.184 181.184z"  horiz-adv-x="1024" />

    
    <glyph glyph-name="zhaobiaoguanli" unicode="&#59109;" d="M863.920818 698.146917l-7.486316-0.895799a61.746107 61.746107 0 0 1-18.04394-3.263265L511.040216 553.411482l-22.394961 7.230374a67.056912 67.056912 0 0 1-11.133495 3.967107L184.073783 694.051838a56.17936 56.17936 0 0 1-14.588717 2.687396L160.079182 698.146917c-52.916094 0-95.978405-43.062311-95.978405-95.978405v-483.859132c0-41.462671 27.385838-77.742508 67.376841-90.347671 3.19928-1.983554 7.294359-4.22305 12.22125-5.886676l346.098128-146.846959 21.371191-3.135295a42.486441 42.486441 0 0 1 9.085956 0.895799l358.319378 149.086455a46.837462 46.837462 0 0 1 10.62161 4.990877A94.186808 94.186808 0 0 1 959.899223 118.30938V602.168512c0 52.916094-43.062311 95.978405-95.978405 95.978405z m-44.278038-299.388638L602.475643 305.915169a31.928816 31.928816 0 1 0-20.155465 60.658352l217.167137 92.971081a31.992802 31.992802 0 1 0 20.155465-60.786323z m0-196.627758l-217.167137-92.843111a31.992802 31.992802 0 1 0-20.219451 60.594367l217.167138 92.971081a31.992802 31.992802 0 1 0 20.21945-60.722337zM462.027244 326.070634a31.928816 31.928816 0 0 0-40.502887-20.155465L204.35722 398.758279a31.992802 31.992802 0 0 0 20.21945 60.722338l217.167138-92.971082a31.928816 31.928816 0 0 0 20.283436-40.438901z m0-196.691744a31.86483 31.86483 0 0 0-40.502887-20.09148l-217.167137 92.843111a31.992802 31.992802 0 1 0 20.21945 60.722337l217.167138-92.971081a31.992802 31.992802 0 0 0 20.283436-40.502887zM761.28791 873.915369a31.992802 31.992802 0 0 1-40.502887 20.219451L514.687395 805.962658 308.589767 894.198805a31.992802 31.992802 0 1 1-20.21945-60.786323l208.017196-88.939988a30.841061 30.841061 0 0 1 18.235897-5.054863 30.26519 30.26519 0 0 1 18.235897 5.054863l208.017196 88.939988a32.120773 32.120773 0 0 1 20.411407 40.502887zM839.990202 778.128921a31.992802 31.992802 0 0 1-40.502887 20.219451l-282.816366-121.444675-282.752381 121.50866a32.056787 32.056787 0 0 1-20.21945-60.786323l285.951661-122.724387a29.433377 29.433377 0 0 1 6.39856-2.687395l1.151741-0.447899c0.383914-0.127971 0.767827 0 1.151741-0.127972a27.769752 27.769752 0 0 1 8.318128-1.087755 28.153665 28.153665 0 0 1 8.382114 1.087755c0.383914 0.063986 0.767827 0 1.151741 0.127972l1.087755 0.447899a37.559549 37.559549 0 0 1 6.39856 2.687395l286.015647 122.724387a32.120773 32.120773 0 0 1 20.283436 40.502887z"  horiz-adv-x="1024" />

    
    <glyph glyph-name="server-manage" unicode="&#58882;" d="M355.70437719 808.46470594H96.740885A64.72276406 64.72276406 0 0 1 32.00604875 743.68157719v-258.96349219a64.72276406 64.72276406 0 0 1 64.73483625-64.74690938h258.96349219a64.72276406 64.72276406 0 0 1 64.73483625 64.74690938V743.669505A64.71069094 64.71069094 0 0 1 355.70437719 808.46470594z m0-515.97117656H96.740885A64.72276406 64.72276406 0 0 1 32.00604875 227.75869311999998v-258.96349218a64.72276406 64.72276406 0 0 1 64.73483625-64.74690938h258.96349219a64.72276406 64.72276406 0 0 1 64.73483625 64.73483625V227.75869311999998a64.71069094 64.71069094 0 0 1-64.73483625 64.73483625z m617.33516062 369.43043625L789.93001437 845.04556219a64.74690938 64.74690938 0 0 1-91.54872562 0L515.25969219 661.92396562a64.72276406 64.72276406 0 0 1 0-91.53665249L698.42958031 387.26571656a64.72276406 64.72276406 0 0 1 91.54872563 0l183.06123187 183.10952438a64.73483625 64.73483625 0 0 1 0 91.5366525z m-99.40817625-369.43043625H614.6799425A64.72276406 64.72276406 0 0 1 549.93303313 227.75869311999998v-258.96349218a64.71069094 64.71069094 0 0 1 64.74690937-64.74690938h258.95141906a64.72276406 64.72276406 0 0 1 64.74690938 64.73483625V227.75869311999998a64.72276406 64.72276406 0 0 1-64.73483625 64.73483625z m0 0"  horiz-adv-x="1024" />

    
    <glyph glyph-name="huibaoguanli-" unicode="&#59702;" d="M481.469 796.346c-5.586 0-11.173 5.587-17.558 7.184a74.213 74.213 0 0 1-8.471 1.833c-16.315 2.933-33.841-0.063-48.992-9.017h75.021zM1017.783 232.103c0 7.181-3.193 13.564-10.377 15.96l-28.729 7.184c-4.79 18.356-10.378 35.115-19.954 50.278l12.771 22.346c3.191 6.385 2.394 15.963-2.396 20.751l-28.731 28.731c-3.191 3.191-7.981 4.788-12.769 4.788-2.396 0-5.588-0.799-7.981-1.597l-23.144-12.769c-15.164 8.779-31.925 15.961-49.482 19.952l-7.182 20.749c-2.394 7.184-9.577 13.568-16.76 13.568l-41.502-0.798c-7.181 0-14.364-5.587-16.76-12.771l-7.979-23.144c-16.761-3.991-33.521-10.376-47.885-19.153l-23.941 13.567c-2.396 1.595-5.588 2.394-7.981 2.394-4.789 0-9.579-1.597-11.973-4.788l-28.731-28.731c-4.789-4.788-6.383-14.366-3.191-20.751l13.566-24.74c-8.776-14.365-15.164-30.327-19.153-47.086l-25.538-7.981c-7.183-2.396-15.962-9.577-15.962-16.761l0.798-41.499c0-7.184 8.779-14.366 15.962-16.761l23.144-7.98c3.992-16.761 11.974-32.721 20.75-47.087l-12.769-24.742c-3.193-6.383-1.596-15.96 3.191-20.749l29.529-28.729c3.193-3.193 7.981-4.789 12.771-4.789 2.394 0 5.588 0.798 7.979 1.596l23.943 12.769c15.162-8.777 31.125-15.96 47.885-19.952l7.981-24.739c2.394-7.184 8.779-16.76 15.962-16.76h42.298c7.184 0 14.364 9.576 16.76 16.76l7.184 21.548c17.557 3.989 34.316 12.769 49.48 21.548l23.144-11.971c2.396-0.798 4.79-1.599 7.981-1.599 4.79 0 9.577 1.599 12.771 4.79l28.731 29.529c4.787 4.789 6.383 14.366 3.191 20.749l-11.971 22.348c9.575 15.165 16.758 32.721 20.75 50.281l26.337 7.181c7.182 2.395 10.373 9.577 10.373 16.761l-2.391 42.299zM802.3 255.246c25.537 0 45.489-20.752 45.489-45.491s-20.75-45.491-45.489-45.491c-25.539 0-45.491 20.752-45.491 45.491s20.75 45.491 45.491 45.491z m1.596-166.801c-66.241 0-120.512 54.271-120.512 120.512 0 0.134 0.009 0.265 0.011 0.398 0.218-66.057 54.394-120.112 120.501-120.112 66.105 0 120.281 54.056 120.499 120.112 0.002-0.134 0.013-0.265 0.013-0.398-0.001-66.241-54.271-120.512-120.512-120.512zM864.549 418.853c-0.798 2.395-1.596 4.789-2.394 6.384v-6.384c-0.798 0 1.596-0.798 0-3.991l2.394 3.991zM596.394 145.907c-15.963 4.789-32.721 20.75-32.721 39.906l-0.798 43.893c0 2.396 0 9.577 0.798 9.577H403.257c-3.991 0-7.981 3.191-7.981 7.184 0 3.989 3.192 7.981 7.184 7.981h169.193c6.385 0 16.76 13.565 25.539 15.96l12.769 3.194c3.193 9.576 7.184 18.354 11.175 27.133l-7.184 11.973c-8.778 16.759-5.587 36.711 7.184 50.278l28.731 28.731c7.98 7.98 18.355 11.971 29.528 11.971 7.182 0 13.566-1.596 19.952-5.587l11.173-7.182c8.779 3.989 15.162 7.981 25.539 11.173l-3.991 10.376c5.585 17.557 12.769 30.326 27.933 30.326l67.039 5.587h0.798c15.162 0 30.327-11.972 37.513-26.337v266.56c0 40.703-26.34 89.386-68.638 89.386H510.199c-1.595 0-3.989-0.798-5.586-0.798 0 0.798-0.798 0.798-0.798 0.798H396.073c-21.547 0-40.701-31.125-40.701-57.462V119.57c0-27.136 27.134-44.691 55.866-44.691h198.724c-3.193 0-2.396 19.952 2.392 29.526l6.386 11.175c-5.586 9.577-9.577 18.356-12.769 27.934l-9.577 2.393z m-193.935 466.88h377.493c3.989 0 7.981-3.192 7.981-7.184 0-3.989-3.192-7.979-7.184-7.979H403.257c-3.991 0-7.981 3.19-7.981 7.183-0.001 3.991 3.192 7.98 7.183 7.98z m0-134.877H689.767c3.991 0 7.981-3.192 7.981-7.182 0-3.991-3.192-7.981-7.182-7.981H403.257c-3.991 0-7.981 3.192-7.981 7.183-0.001 4.788 3.192 7.98 7.183 7.98z m0-104.548h197.125c3.989 0 7.981-3.193 7.981-7.183 0-3.992-3.194-7.981-7.184-7.981H403.257c-3.991 0-7.981 3.191-7.981 7.184-0.001 3.989 3.192 7.98 7.183 7.98zM332.227 114.782V716.538c0 13.567 4.789 27.933 11.173 39.904L41.724 584.055C5.811 563.306-6.958 517.017 13.791 481.103l276.138-482.044c9.576-17.556 26.337-30.324 45.49-35.114 6.386-1.596 13.567-2.394 19.953-2.394 12.769 0 25.539 6.383 37.509 12.769l138.867 82.203H402.459c-37.511-0.798-70.232 22.345-70.232 58.259z m-25.539 136.472l-36.712-20.75c-3.991-2.394-7.981-0.798-10.375 2.396-2.395 3.989-0.798 7.979 2.394 10.375l36.711 20.749c3.991 2.394 7.981 0.798 10.375-2.395 2.397-3.192 0.799-7.982-2.393-10.375z m0.798 130.887l-93.375-53.473c-3.992-2.393-7.981-0.798-10.375 2.396-2.395 3.99-0.798 7.98 2.394 10.374l93.375 53.472c3.991 2.395 7.981 0.799 10.375-2.395 2.395-3.99 0.8-8.779-2.394-10.374z m2.394 154.03l-162.01-92.578c-3.991-2.394-7.981-0.798-10.376 2.395-2.394 3.99-0.797 7.981 2.395 10.375l162.01 92.578c3.991 2.395 7.981 0.798 10.375-2.395s0.799-7.982-2.394-10.375z"  horiz-adv-x="1024" />

    
    <glyph glyph-name="shexiangtou" unicode="&#58920;" d="M68.608 191.488c31.744 0 57.344-25.6 57.344-57.344v-27.648c10.24-23.552 24.576-21.504 24.576-21.504h59.392c49.152-6.144 65.536 47.104 65.536 47.104l13.312 72.704-200.704 67.584C32.768 291.84 4.096 353.28 23.552 411.648L163.84 815.104c20.48 57.344 80.896 89.088 136.192 69.632l514.048-177.152c55.296-19.456 83.968-80.896 63.488-139.264l-28.672-83.968 64.512-21.504 4.096 13.312c11.264 30.72 43.008 48.128 70.656 38.912 28.672-10.24 43.008-43.008 31.744-74.752l-92.16-264.192c-11.264-30.72-43.008-48.128-70.656-38.912-28.672 10.24-43.008 43.008-31.744 74.752l6.144 17.408-64.512 21.504-29.696-84.992c-20.48-57.344-80.896-89.088-136.192-69.632L399.36 165.888l-23.552-107.52c-12.288-68.608-77.824-75.776-77.824-75.776H151.552c-14.336-2.048-21.504-15.36-25.6-27.648v-19.456c0-31.744-25.6-57.344-57.344-57.344C35.84-122.88 10.24-97.28 10.24-65.536V133.12c0 31.744 25.6 58.368 58.368 58.368zM322.56 578.56c43.008 0 76.8 34.816 76.8 76.8S364.544 732.16 322.56 732.16c-43.008 0-76.8-34.816-76.8-76.8-1.024-41.984 33.792-76.8 76.8-76.8z"  horiz-adv-x="1024" />

    
    <glyph glyph-name="iconfontdian1" unicode="&#58985;" d="M512.325632 383.652864m-159.997952 0a156.248 156.248 0 1 0 319.995904 0 156.248 156.248 0 1 0-319.995904 0Z"  horiz-adv-x="1024" />

    
    <glyph glyph-name="xiangzuozhedie" unicode="&#59020;" d="M636.33971983 683.54568938L359.59886802 404.27535807c-0.39523127-0.39523127-0.55332393-0.94855442-0.94855443-1.42283239-0.07904594-0.07904594-0.23713861-0.15809266-0.31618455-0.23713861-9.80173262-9.95982528-9.80173262-25.92716318 0.15809267-35.80794251l279.2703313-276.74085183c9.95982528-9.80173262 25.92716318-9.80173262 35.72889578 0.15809267 4.9008663 4.9008663 7.35129908 11.38265691 7.35129908 17.78540157 0 6.4817906-2.52947948 13.04262792-7.50939174 17.94349422L411.84842638 385.14617005l260.3782819 262.82871543c4.9008663 4.9008663 7.35129908 11.38265691 7.35129907 17.78540156 0 6.56083732-2.52947948 13.04262792-7.50939173 17.94349423C662.18783705 693.5845606 646.22049839 693.50551388 636.33971983 683.54568938z"  horiz-adv-x="1024" />

    
    <glyph glyph-name="guanbi" unicode="&#58896;" d="M580.16180708 401.88229884l204.4165856-204.38073586a48.18237292 48.18237292 0 1 0-68.15081195-68.15081195L512.0468449 333.76733661000003l-204.38073531-204.41658559A48.18237292 48.18237292 0 1 0 239.51529766 197.50156298000002l204.41658554 204.38073586L239.51529766 606.26303466A48.18237292 48.18237292 0 1 0 307.66610959 674.41384667l204.38073531-204.4165862L716.42758071 674.41384667a48.18237292 48.18237292 0 1 0 68.15081197-68.15081198L580.16180708 401.88229884z"  horiz-adv-x="1024" />

    
    <glyph glyph-name="gerenzhongxinzhuyegerenziliao" unicode="&#58897;" d="M978.673164-32.708703c0-13.074783-3.592828-25.194822-9.366322-35.933397-0.154519-0.675382-0.232291-1.38965-0.38681-2.047636l-0.733711 0c-13.113669-22.635533-37.256532-38.048571-65.22349-38.048571-2.799766 0-5.350868-0.211824-8.073886 0.097214-3.554966-0.696872-7.204076-0.097214-10.970866-0.097214L203.214796-108.738307c-3.765767 0-7.416923-0.599657-10.969842 0.097214-2.723018-0.309038-5.273097-0.097214-8.073886-0.097214-27.966958 0-52.108798 15.413038-65.22349 38.048571l-0.733711 0c-0.154519 0.657986-0.232291 1.390673-0.385786 2.047636-5.77554 10.738575-9.367345 22.858614-9.367345 35.933397 0 5.436826-1.447978 10.720156-0.366344 15.8285-0.733711 8.990768 0.366344 17.923208 0.366344 27.116591 0 189.94405 150.533458 343.915817 336.218508 343.915817l197.775412 0c185.68505 0 336.219531-153.971767 336.219531-343.915817 0-9.193383 1.100054-18.125823 0.347924-27.116591C980.101699-21.988548 978.673164-27.270854 978.673164-32.708703zM543.567461 374.586606c-136.530536 0-247.219521 113.179712-247.219521 252.78119 0 139.611711 110.688985 252.782214 247.219521 252.782214s247.219521-113.170502 247.219521-252.782214C790.785959 487.766318 680.096974 374.586606 543.567461 374.586606z"  horiz-adv-x="1024" />

    
    <glyph glyph-name="signout" unicode="&#59330;" d="M402.285714 73.142857q0-2.285714 0.571429-11.428571t2.857143-15.142857-1.714286-13.428571-5.714286-11.142857-11.714286-3.714286l-182.857143 0q-68 0-116.285714 48.285714t-48.285714 116.285714l0 402.285714q0 68 48.285714 116.285714t116.285714 48.285714l182.857143 0q7.428571 0 12.857143-5.428571t5.428571-12.857143q0-2.285714 0.571429-11.428571t2.857143-15.142857-1.714286-13.428571-5.714286-11.142857-11.714286-3.714286l-182.857143 0q-37.714286 0-64.571429-26.857143t-26.857143-64.571429l0-402.285714q0-37.714286 26.857143-64.571429t64.571429-26.857143l178.285714 0 6.571429-0.571429 6.571429-1.714286 4.571429-3.142857 4-5.142857 1.142857-7.714286zm530.285714 310.857143q0-14.857143-10.857143-25.714286l-310.857143-310.857143q-10.857143-10.857143-25.714286-10.857143t-25.714286 10.857143-10.857143 25.714286l0 164.571429-256 0q-14.857143 0-25.714286 10.857143t-10.857143 25.714286l0 219.428571q0 14.857143 10.857143 25.714286t25.714286 10.857143l256 0 0 164.571429q0 14.857143 10.857143 25.714286t25.714286 10.857143 25.714286-10.857143l310.857143-310.857143q10.857143-10.857143 10.857143-25.714286z"  horiz-adv-x="1024" />

    
    <glyph glyph-name="exceldaochu-" unicode="&#58908;" d="M581.796 452.044h244.996v-135.829h-244.996zM819.616 589.5129999999999l170.027-202.806-170.027-205.013zM786.198 657.063l100.353 101.419h-306.165v-101.419h205.812zM786.198 110.86900000000003h-205.812v-103.555h306.165zM512.05 823.7429999999999l-477.099-120.82v-648.502l477.099-121.887zM409.991 606.251l-101.738-25.727-62.095-112.357-46.434 84.912-74.546-18.849 78.642-142.671-81.394-147.277 79.46-20.593 46.922 86.257 63.29-114.819 97.138-25.175-118.602 216.884z"  horiz-adv-x="1024" />

    
    <glyph glyph-name="chulizhong2" unicode="&#58951;" d="M286.975 384.045c0-11.534 4.745-22.998 12.893-31.159 8.149-8.158 19.603-12.905 31.128-12.905 11.527 0 22.98 4.747 31.128 12.905 8.149 8.162 12.893 19.625 12.893 31.159 0 11.538-4.744 23.003-12.893 31.159-8.149 8.156-19.601 12.909-31.128 12.909-11.526 0-22.98-4.754-31.128-12.909-8.148-8.157-12.893-19.623-12.893-31.159v0 0zM521.743 428.114c24.328 0 44.043-19.763 44.043-44.069 0-24.303-19.715-44.064-44.043-44.064-24.234 0-43.999 19.763-43.999 44.064 0 24.307 19.764 44.069 43.999 44.069v0 0zM668.514 384.045c0-11.534 4.744-22.998 12.893-31.159 8.149-8.158 19.601-12.905 31.128-12.905 11.527 0 22.98 4.747 31.128 12.905 8.149 8.162 12.892 19.625 12.892 31.159 0 11.538-4.744 23.003-12.892 31.159-8.149 8.156-19.601 12.909-31.128 12.909-11.527 0-22.98-4.754-31.128-12.909-8.148-8.157-12.893-19.623-12.893-31.159v0 0zM512.003 833.103c-248.042 0-449.107-201.064-449.107-449.094 0-248.044 201.064-449.11 449.107-449.11 248.030 0 449.1 201.067 449.1 449.11 0 248.031-201.070 449.094-449.1 449.094v0 0zM512.003-5.222c-214.622 0-389.226 174.597-389.226 389.231 0 214.613 174.607 389.216 389.226 389.216 214.615 0 389.217-174.606 389.217-389.216 0-214.633-174.602-389.231-389.217-389.231v0 0z"  horiz-adv-x="1024" />

    
    <glyph glyph-name="tubiao07" unicode="&#58894;" d="M77.913043 678.956522l0-422.956522c0-83.478261 66.782609-150.26087 150.26087-150.26087l222.608696 0 5.565217-189.217391 222.608696 189.217391 250.434783 0c83.478261 0 150.26087 66.782609 150.26087 150.26087L1079.652174 678.956522c0 83.478261-66.782609 150.26087-150.26087 150.26087L228.173913 829.217391C144.695652 823.652174 77.913043 756.869565 77.913043 678.956522L77.913043 678.956522zM723.478261 439.652174c0 38.956522 33.391304 72.347826 72.347826 72.347826 38.956522 0 72.347826-33.391304 72.347826-72.347826S834.782609 372.869565 795.826087 372.869565C756.869565 372.869565 723.478261 400.695652 723.478261 439.652174L723.478261 439.652174zM506.434783 439.652174c0 38.956522 33.391304 72.347826 72.347826 72.347826 38.956522 0 72.347826-33.391304 72.347826-72.347826s-33.391304-72.347826-72.347826-72.347826C539.826087 372.869565 506.434783 400.695652 506.434783 439.652174L506.434783 439.652174zM294.956522 439.652174c0 38.956522 33.391304 72.347826 72.347826 72.347826 38.956522 0 72.347826-33.391304 72.347826-72.347826S406.26087 372.869565 367.304348 372.869565C328.347826 372.869565 294.956522 400.695652 294.956522 439.652174L294.956522 439.652174zM294.956522 439.652174"  horiz-adv-x="1164" />

    
    <glyph glyph-name="bangzhu" unicode="&#58887;" d="M512 896C230.4 896 0 665.6 0 384s230.4-512 512-512 512 230.4 512 512S796.8 896 512 896z m0-768c-28.8 0-54.4 25.6-54.4 54.4s22.4 54.4 54.4 54.4c28.8 0 54.4-25.6 54.4-54.4S540.8 128 512 128z m147.2 342.4c-6.4-12.8-16-25.6-25.6-35.2s-28.8-28.8-54.4-51.2c-6.4-6.4-12.8-12.8-16-19.2s-6.4-9.6-9.6-12.8c-3.2-3.2-3.2-9.6-6.4-12.8 0-3.2-3.2-12.8-6.4-22.4-3.2-22.4-16-35.2-38.4-35.2-9.6 0-19.2 3.2-28.8 9.6-6.4 6.4-12.8 19.2-12.8 32 0 19.2 3.2 35.2 9.6 48s12.8 25.6 22.4 35.2l35.2 35.2 28.8 28.8c6.4 6.4 9.6 12.8 16 22.4 3.2 6.4 6.4 16 6.4 25.6 0 16-6.4 32-19.2 44.8s-28.8 19.2-48 19.2c-22.4 0-41.6-6.4-51.2-19.2-9.6-12.8-19.2-28.8-28.8-54.4-6.4-25.6-22.4-38.4-41.6-38.4-12.8 0-22.4 3.2-28.8 12.8-6.4 9.6-9.6 19.2-9.6 28.8 0 22.4 6.4 41.6 19.2 64 12.8 22.4 32 38.4 57.6 54.4 25.6 12.8 54.4 22.4 86.4 22.4s57.6-6.4 80-16c22.4-12.8 41.6-28.8 54.4-48 12.8-19.2 19.2-41.6 19.2-67.2 0-19.2-3.2-38.4-9.6-51.2z"  horiz-adv-x="1024" />

    
    <glyph glyph-name="order" unicode="&#58942;" d="M689.857 743.82c0-41.882-33.97-75.839-75.84-75.839h-202.239c-41.92 0-75.84 33.957-75.84 75.839v12.64c0 41.882 33.921 75.839 75.84 75.839h202.239c41.871 0 75.84-33.957 75.84-75.839v-12.64zM820.503 715.565h-85.666c-13.626-55.113-63.15-96.256-122.4-96.256h-202.239c-59.249 0-108.724 41.144-122.35 96.256h-85.715c-38.661 0-70.014-33.526-70.014-74.889v-624.172c0-41.364 31.354-74.89 70.014-74.89h618.371c38.71 0 70.014 33.526 70.014 74.89v624.172c-0.001 41.363-31.304 74.889-70.015 74.889zM704.077 151.63h-383.395v50.56h383.395v-50.56zM704.077 303.308h-383.395v50.562h383.395v-50.562zM704.077 454.989h-383.395v50.56h383.395v-50.56z"  horiz-adv-x="1024" />

    
    <glyph glyph-name="chakan" unicode="&#58970;" d="M512 38.4C256 38.4 32 307.2 32 390.4S256 742.4 512 742.4c262.4 0 480-268.8 480-352s-217.6-352-480-352z m0 640c-230.4 0-416-243.2-416-288 0-44.8 185.6-288 416-288s416 243.2 416 288S742.4 678.4 512 678.4zM512 230.4c-89.6 0-160 70.4-160 160S422.4 550.4 512 550.4s160-70.4 160-160c0-83.2-70.4-160-160-160z m0 256c-51.2 0-96-38.4-96-96S460.8 294.4 512 294.4s96 44.8 96 96S563.2 486.4 512 486.4z"  horiz-adv-x="1024" />

    
    <glyph glyph-name="chulizhong" unicode="&#58926;" d="M865.4 550.6c4.8-9.9 14.8-16.2 25.8-16.2 4.2 0 8.4 1 12.3 2.8 14.2 6.8 20.2 23.4 13.6 37.9-2.7 5.6-5.4 11.3-8.3 16.6-3.5 6.7-9.5 11.7-16.7 13.9-7.2 2.3-15 1.6-21.7-2-13.9-7.4-19.2-24.6-12.1-38 2.1-4.8 4.6-10 7.1-15z m46-36.4c-15.2-4.2-24.4-19.8-20.5-34.6 2.7-10.8 4.8-21.3 6.4-31.4 2.2-13.8 14.2-23.9 28.1-23.9 1.5 0 3.3 0.1 4.6 0.3 15.5 2.5 25.9 16.8 23.6 32.8-2.1 12.1-4.6 24.2-7.5 36.1-1.7 7.3-6.3 13.6-12.8 17.5-6.6 3.9-14.5 5.1-21.9 3.2zM676.3 29.6c-9.8-4.5-19.7-8.6-29.7-12.5-7.1-2.6-12.9-7.9-16-14.7-3.2-6.8-3.5-14.7-0.8-21.8 4.2-11.1 14.8-18.5 26.7-18.5 3.2 0 6.4 0.6 9.9 1.7 11.6 4.2 23 9 34.2 14.2 6.9 3.2 12.2 9 14.8 16.1 2.6 7.1 2.2 15-1.1 21.8-6.8 14.1-23.8 20.3-38 13.7zM920 284.7c-15 4.8-31.1-3.5-35.8-18.5-3.3-10.2-6.9-20.3-11-30.3-2.9-7.1-2.9-15 0.2-22.1 2.9-6.9 8.5-12.3 15.4-14.9 3.6-1.5 7.2-2.2 10.8-2.2 11.6-0.1 22 6.9 26.4 17.7 4.7 11.4 8.8 23 12.5 34.7 2.3 7.1 1.7 14.8-1.7 21.5-3.5 6.7-9.5 11.8-16.8 14.1z m31.4 106.4c-5.2 5.5-12.4 8.7-19.9 8.8h-0.8c-15.4 0-28-12.2-28.5-27.5-0.5-13-1.2-22.9-2.2-32.2-1.8-15.6 9.4-29.7 24.9-31.5l1.2-0.1c0.7-0.1 1.4-0.2 2-0.2 14.4 0 26.8 11.2 28.2 25.2 1.4 11.2 2.3 23.6 2.7 36.9 0.4 7.6-2.3 15-7.6 20.6z m-74-214.1c-13.2 8.5-30.8 4.9-39.5-8.1-5-7.8-11-16.1-18.8-26-4.7-5.9-6.8-13.5-5.9-21 0.9-7.5 4.8-14.3 10.7-18.9 12.4-9.6 30.3-7.4 40 4.9 7.6 9.8 14.8 19.8 21.7 30.1 8.5 13 4.8 30.4-8.2 39z m-90-82.1c-7.5 0.6-15-1.9-20.7-6.8h-0.1c-8.3-7.3-17.5-14.2-25.2-20-12.7-9.3-15.5-26.8-6.2-39.8 5.4-7.3 13.9-11.6 23-11.6 6 0 11.9 1.9 16.8 5.4 9.9 7.3 19.6 14.9 28.9 22.9 5.8 4.9 9.3 11.9 9.8 19.5 0.5 7.5-1.9 14.9-6.9 20.6-4.8 5.7-11.8 9.3-19.4 9.8z m-193-101.8c-6.1 4.5-13.7 6.3-21.2 5.1-5.4-0.8-10.8-1.6-16-2.2-15.5-1.7-26.8-15.8-25.1-31.6 1.7-14.3 13.8-25.1 28.2-25.1 0.9 0 2.2 0 3.7 0.3 6 0.6 12.1 1.5 18 2.5 7.5 1.2 14.3 5.4 18.7 11.6 4.3 6 6.1 13.5 4.9 20.8-1 7.4-5 14.1-11.2 18.6zM449.7-3v1l-6.6 1.2C353.7 15 272 62 212.9 131.5c-59.7 70.3-92.6 160.1-92.6 252.6 0 215.6 175.4 391 391 391 81.1 0 161.7-26 227.8-73.3L721 675.5c-8.6-12.5-17.3-25.1-25.9-37.6l-8.9-13.4 12.9 0.8h2.5l8 0.1v0.6c24 1.5 100.1 6.4 117.3 8.5h0.5c4.6 0.3 8.5 2 11 3.3 6.9 3.5 11.7 9.4 13.8 17.2l0.7 2.7c1.2 6.9 0.6 14.6-1.9 22.2-8.2 25.6-15.9 51.9-23.4 77.4-3.4 11.7-6.9 23.3-10.3 35l-4.8 16-40.8-59.4C696 802.7 603.9 832.2 511.5 832.2c-119.6 0-232-46.6-316.6-131.2-84.7-84.7-131.3-197.1-131.3-316.7 0-106 37.6-208.5 106-289.4 67.5-79.7 160.7-133.3 263.5-151.7l9.4-1.5v1.5c13.4 2.2 23.7 13.8 23.7 27.7 0.3 11.4-6.2 21.6-16.5 26.1zM735.4 247.5c4.5 9.8 0.3 21.6-9.5 26.3L506 380.9l3.8 246.6-0.1 8.1h-1.6c-3.1 7.5-10.4 12.4-18.6 12.3-7.9 0-15.1-4.6-18.4-11.9h-1.8l-4.2-266.3v-0.2c-0.1-0.8-0.2-1.6-0.2-2.4 0-1.1 0.1-2.1 0.3-3.1v-2.4h0.6c1.5-4.9 5.1-9 9.8-11.1l232.6-112.9 11.5-5.4V236c6.9 1 12.8 5.3 15.7 11.5z"  horiz-adv-x="1024" />

    
    <glyph glyph-name="huanyuan" unicode="&#58895;" d="M174.22769188 437.46461531H32l177.74769187-213.26769187 177.74769282 213.26769187H245.26769188C266.68307656 636.48 430.17846125 792.88615406 636.28307656 792.88615406c213.26769187 0 391.01538469-177.67384594 391.01538469-391.01538469 0-213.26769187-177.74769187-391.01538469-391.01538469-391.01538468h-35.52v-71.04h35.52a461.16923062 461.16923062 0 0 1 462.12923156 462.05538469A461.16923062 461.16923062 0 0 1 636.28307656 864C394.58461531 864 195.49538469 679.16307656 174.22769188 437.46461531z"  horiz-adv-x="1181" />

    
    <glyph glyph-name="daibanshixiang" unicode="&#59305;" d="M716.54 312.366c-60.193-28.396-100.386-75.29-120.682-136.28-15.698-47.193-15.398-95.186 0.6-142.579 15.896-47.093 45.091-85.486 86.686-115.082 41.594-29.396 88.486-44.794 140.48-46.394h-7.5c-221.567 0-443.134-0.1-664.801 0.1-23.897 0-47.294 4-69.09 14.398-25.596 12.198-46.194 29.896-60.992 53.493-11.299 17.896-18.496 36.893-19.896 57.69-0.4 5.2-1.2 10.398-1.2 15.598-0.1 249.263-0.3 498.526 0.1 747.69 0.1 30.396 11.5 57.89 31.496 81.888 13.297 16.098 29.495 29.096 48.69 38.195C95.53 888.482 111.728 893.98 129.126 894.68c14.598 0.6 29.196 1.2 43.693 1.2 219.869 0.1 439.736 0.2 659.604 0 31.394-0.1 59.79-9.7 84.786-27.797C942.404 849.687 960.702 826.29 969 796.794c3.3-11.697 6.1-24.196 6.2-36.294 0.4-153.177 0.2-306.355 0.2-459.533v-7.698c-82.89 52.792-169.575 61.29-258.862 19.097zM196.514 82.5c40.095 0.1 80.19 0 120.283 0 40.594 0 81.188 0.2 121.681-0.1 13.598-0.1 24.497 10.999 24.797 22.597 0.3 14.198-12.399 23.896-24.697 23.896-80.687-0.2-161.376-0.1-242.064-0.1-14.598 0-25.596-10.098-25.396-23.396 0.3-13.698 11.498-22.897 25.396-22.897z m-0.9 185.873c48.594 0.5 97.286 0.2 145.879 0.2 48.794 0 97.585 0.3 146.48-0.2 13.397-0.1 24.495 10.798 24.495 22.497 0 13.197-8.799 23.795-24.797 23.895-97.284 0.1-194.471 0.1-291.657 0-14.298 0-24.896-9.998-24.896-23.296 0-12.298 11.098-23.196 24.496-23.096zM779.83 685.711c-97.285-0.3-194.57-0.2-291.857-0.2-97.684 0-195.471 0-293.157 0.1-8.998 0-15.897-3.4-20.297-10.799-4.499-7.8-4.399-15.897 0.1-23.796 5.8-9.998 15.798-11.597 26.297-11.597 189.673-0.1 379.445-0.1 569.216 0 4.5 0 9.098 0.8 13.698 1.1 14.098 1.1 22.197 13.797 20.597 25.295-1.3 10.8-10.7 19.996-24.597 19.896z m-2.1-184.973H197.815c-2.9 0-5.9-0.6-8.6-1.2-10.797-2.3-19.796-13.498-18.196-23.397 1.8-12.297 9.5-21.696 23.597-21.696 97.685 0.1 195.472 0.1 293.157 0.1 97.486 0 194.971 0.1 292.457-0.2 14.197 0 24.396 10.9 24.296 23.496-0.1 13.098-11.498 22.897-26.796 22.897z m43.695-581.013c-98.786 2.999-191.373 82.286-187.574 193.57 3.3 93.687 86.19 181.974 202.972 178.174 99.885-3.2 186.372-81.887 187.072-185.872 0-101.486-87.787-189.372-202.47-185.873z m104.084 185.972c-21.597-0.2-43.194 0-64.99 0h-7.5c0 39.194 0.3 77.49-0.1 115.682-0.1 15.998-10.997 23.797-24.895 23.697-13.798-0.1-23.397-9.9-23.497-23.797-0.1-46.393 0-92.786 0-139.179 0-12.9 10.2-22.697 23.697-22.697h99.385c1.7 0 3.4-0.1 5.1 0.3 12.497 3.6 19.696 15.098 16.996 28.396-1.7 9.4-11.098 17.698-24.196 17.598z"  horiz-adv-x="1024" />

    
    <glyph glyph-name="zaixiankefu" unicode="&#58901;" d="M930.414716 324.763147c0.272667 9.816003 0.272667 19.495673 0 29.44801 2.590334 133.743044-37.219012 246.354414-115.065371 325.836773-37.219012 37.900679-82.34536 66.939688-134.152044 86.844361-8.043669 72.120357-86.435361 129.107709-181.732392 129.107709S325.776186 839.148981 317.732516 766.892291c-51.806684-19.76834-96.933032-48.807349-134.152043-86.844361-77.846359-79.482359-117.519372-191.957396-114.929038-325.155106-0.272667-12.542671-0.136333-24.403675 0.272667-35.992012-20.17734-20.313673-36.128345-50.988683-24.540008-94.07003 8.589003-32.038344 32.311011-56.033018 61.213687-66.394355 14.724005-8.998003 32.174677-14.315005 50.716016-14.451338C193.396476-17.978964 327.821186-128 503.55491-128c175.324724 0 309.885768 110.293703 346.559446 272.257755 1.090667-0.272667 2.317667-0.409 3.544668-0.409 23.176674 0 44.444681 8.043669 61.077353 21.540674 21.949674 12.406337 39.127679 33.265344 46.080682 59.441353 13.224338 47.307682-7.498336 79.755026-30.402343 99.932365zM346.362526 517.947544c2.726668-4.771668 69.802689-115.065371 195.77473-162.782053 34.765011-13.224338 70.484356-20.722673 104.840367-27.948343 69.257356-14.587671 134.561044-28.493676 179.005725-86.162695 0.409-0.545334 0.954334-1.090667 1.499668-1.636l-0.136334-2.863001c0-21.540674-1.636001-42.39968-4.771668-62.440687-57.260019-91.343363-152.011716-151.330049-269.803755-164.145387-8.725336 11.588337-26.585009 19.495673-47.307682 19.495673-29.44801 0-53.306351-15.814672-53.30635-35.446678s23.858341-35.446678 53.30635-35.446678c26.312342 0 47.989349 12.815338 52.352017 29.720676 37.900679 4.362668 74.029024 13.360671 107.976036 27.130342 48.398349 19.495673 91.070696 47.989349 126.926374 84.663028 5.726002 5.862335 11.31567 11.997337 16.632672 18.132339-42.672347-129.653042-156.374384-213.089069-304.977766-213.089069h-1.227c-190.594062 0-323.791772 136.333378-323.791772 331.835441l-0.409 18.677673c-0.272667 7.907336 0.954334 30.402343 2.317667 51.806683 103.886034 36.810012 147.103715 142.46838 149.012382 147.240048l16.087339 63.258688z m68.712022-296.116097c0-33.947011-27.539342-61.75902-61.622687-61.75902-33.947011 0-61.75902 27.539342-61.75902 61.75902 0 34.083344 27.539342 61.622687 61.75902 61.622687 33.947011-0.136333 61.622687-27.675676 61.622687-61.622687z m286.98176 0c0-33.538011-27.130342-60.668353-60.668353-60.668353s-60.668353 27.130342-60.668353 60.668353 27.130342 60.668353 60.668353 60.668353c33.538011-0.136333 60.668353-27.266676 60.668353-60.668353z m0 0"  horiz-adv-x="1024" />

    
    <glyph glyph-name="expand" unicode="&#58881;" d="M567.03549209 196.98232649L785.91331933 495.86771471C817.48773193 538.97893132 785.66329573 598.5559898700001 731.12242723 598.55598988l-438.0771127-1e-8c-54.64802124 0-86.54389255-59.7199294-54.93376297-102.90258174l218.7349564-298.67108166C483.77762438 160.26457115999995 540.10437564 160.26457115999995 567.03549209 196.98232649z"  horiz-adv-x="1024" />

    


  </font>
</defs>
</svg>
